<?xml version="1.0" standalone="no"?>
<!DOCTYPE svg PUBLIC "-//W3C//DTD SVG 1.1//EN" "http://www.w3.org/Graphics/SVG/1.1/DTD/svg11.dtd" >
<svg xmlns="http://www.w3.org/2000/svg">
<metadata>Generated by IcoMoon</metadata>
<defs>
<font id="icomoon" horiz-adv-x="1024">
<font-face units-per-em="1024" ascent="960" descent="-64" />
<missing-glyph horiz-adv-x="1024" />
<glyph unicode="&#x20;" horiz-adv-x="512" d="" />
<glyph unicode="&#xe900;" glyph-name="phone-receiver-silhouette" d="M882.298 247.296c-61.86 52.908-124.638 84.957-185.739 32.129l-36.484-31.929c-26.694-23.177-76.325-131.472-268.218 89.273-191.853 220.465-77.684 254.791-50.95 277.769l36.684 31.969c60.781 52.948 37.843 119.603-5.994 188.216l-26.454 41.559c-44.037 68.453-91.99 113.409-152.931 60.541l-32.928-28.772c-26.934-19.621-102.22-83.399-120.482-204.56-21.979-145.378 47.354-311.855 206.199-494.517 158.645-182.742 313.973-274.532 461.11-272.933 122.281 1.319 196.128 66.935 219.226 90.791l33.048 28.812c60.781 52.828 23.018 106.616-38.882 159.644l-37.204 32.009z" />
<glyph unicode="&#xe901;" glyph-name="location-marker" d="M512 960c-229.573 0-415.682-186.11-415.682-415.682 0-208.259 258.992-482.265 368.133-588.494 26.732-25.965 68.998-26.507 96.25-1.061 109.797 102.346 366.982 366.011 366.982 589.578-0.023 229.55-186.11 415.66-415.682 415.66zM512 409.256c-94.918 0-171.818 76.9-171.818 171.796s76.9 171.818 171.818 171.818c94.895 0 171.773-76.9 171.773-171.818s-76.878-171.796-171.773-171.796z" />
<glyph unicode="&#xe902;" glyph-name="envelope" d="M98.284 602.281c12.953-9.141 52-36.289 117.142-81.429 65.144-45.141 115.048-79.898 149.715-104.274 3.809-2.672 11.901-8.48 24.28-17.433 12.381-8.959 22.669-16.198 30.855-21.72 8.192-5.52 18.095-11.713 29.72-18.568 11.62-6.849 22.574-12.001 32.86-15.411 10.288-3.439 19.81-5.142 28.571-5.142h1.151c8.76 0 18.287 1.705 28.575 5.142 10.282 3.41 21.246 8.568 32.856 15.411 11.616 6.863 21.52 13.050 29.712 18.568 8.192 5.522 18.471 12.761 30.857 21.72 12.377 8.961 20.479 14.761 24.288 17.433 35.042 24.376 124.193 86.283 267.425 185.716 27.808 19.42 51.041 42.853 69.705 70.283 18.678 27.418 28.006 56.181 28.006 86.273 0 25.146-9.053 46.672-27.15 64.575-18.095 17.907-39.527 26.856-64.281 26.856h-841.144c-29.331 0-51.904-9.903-67.713-29.71-15.808-19.81-23.711-44.573-23.711-74.284 0-24 10.48-50.007 31.429-78.005 20.947-28 43.24-50.003 66.855-66zM966.85 541.144c-124.939-84.564-219.809-150.284-284.562-197.146-21.714-15.994-39.329-28.479-52.857-37.425-13.528-8.953-31.519-18.095-53.999-27.424-22.472-9.343-43.416-14-62.848-14h-1.157c-19.428 0-40.383 4.657-62.856 14-22.472 9.329-40.476 18.471-53.999 27.424-13.52 8.947-31.141 21.432-52.853 37.425-51.432 37.712-146.097 103.436-283.999 197.146-21.72 14.467-40.958 31.049-57.72 49.712v-453.701c0-25.158 8.949-46.672 26.856-64.577 17.903-17.911 39.431-26.864 64.575-26.864h841.146c25.138 0 46.664 8.953 64.569 26.864 17.911 17.911 26.856 39.417 26.856 64.577v453.701c-16.384-18.277-35.426-34.859-57.152-49.712z" />
<glyph unicode="&#xe903;" glyph-name="clock" d="M511.991 960c-282.762 0-511.991-229.236-511.991-511.991s229.23-512.009 511.991-512.009 512.009 229.254 512.009 512.009-229.247 511.991-512.009 511.991zM733.34 350.628h-217.064c-0.734 0-1.417 0.177-2.144 0.205-0.727-0.034-1.406-0.205-2.144-0.205-19.555 0-35.411 15.855-35.411 35.411v361.481c0 19.555 15.855 35.411 35.411 35.411s35.411-15.855 35.411-35.411v-326.071h185.927c19.555 0 35.411-15.855 35.411-35.411s-15.842-35.411-35.397-35.411z" />
<glyph unicode="&#xe904;" glyph-name="specialist-user" d="M511.999 382.488c70.65 0 236.758 85.026 236.758 288.759 0.003 159.474-21.524 288.753-236.758 288.753-215.23 0-236.758-129.279-236.758-288.756 0-203.73 166.107-288.756 236.758-288.756zM310.626 719.435c16.631 32.164 52.605 69.332 129.97 67.684 0 0 46.112-111.851 272.497-61.622 0.914-17.867 1.201-36.097 1.201-54.253 0-99.584-43.971-161.287-80.862-195.513-46.481-43.128-98.087-58.781-121.433-58.781s-74.952 15.653-121.433 58.781c-36.89 34.225-80.862 95.929-80.862 195.513 0.003 16.11 0.237 32.275 0.922 48.191zM951.546 86.349c-12.086 75.16-36.972 171.973-86.883 206.377-34.082 23.498-152.994 87.029-203.771 114.159l-0.879 0.469c-5.804 3.101-12.891 2.48-18.069-1.584-26.6-20.883-55.738-34.958-86.605-41.831-5.453-1.215-9.928-5.090-11.91-10.311l-31.432-82.85-31.432 82.85c-1.983 5.222-6.457 9.096-11.91 10.311-30.866 6.873-60.005 20.948-86.605 41.831-5.178 4.065-12.265 4.689-18.069 1.584-50.174-26.81-170.541-91.636-204.5-114.525-57.454-38.706-82.578-178.791-87.029-206.48-0.442-2.747-0.184-5.555 0.741-8.176 2.056-5.804 54.786-142.173 438.804-142.173s436.748 136.369 438.804 142.173c0.928 2.621 1.186 5.432 0.744 8.176zM774.588 132.212l-75.166-23.428-75.166 23.428v40.443h150.332v-40.443z" />
<glyph unicode="&#xe905;" glyph-name="phone-call" d="M943.158 285.776c-63.166 0-125.035 9.863-183.673 29.212-28.618 9.863-61.117 2.264-79.925-16.924l-116.251-87.795c-133.39 71.194-218.759 156.51-288.983 288.93l85.422 113.502c21.504 21.504 29.212 52.979 19.996 82.459-19.511 59.015-29.427 120.94-29.427 183.997 0 44.572-36.27 80.842-80.842 80.842h-188.633c-44.572 0-80.842-36.27-80.842-80.842 0-520.030 423.128-943.158 943.158-943.158 44.572 0 80.842 36.27 80.842 80.842v188.092c0 44.572-36.27 80.842-80.842 80.842z" />
<glyph unicode="&#xe906;" glyph-name="love" d="M752 898c-109.088 0-190.034-66.994-240-162.030-49.962 95.030-130.908 162.030-240 162.030-157.218 0-272-132.030-272-293.030 0-212.914 203.144-346.582 492.244-599.546 11.314-9.898 28.198-9.896 39.512 0 288.834 252.732 492.244 386.606 492.244 599.546 0 161.026-114.8 293.030-272 293.030zM512 67.798c-266.244 231.27-452 359.744-452 537.172 0 132.848 91.14 233.030 212 233.030 116.504 0 188.702-107.894 211.084-187.992 8.072-29.22 49.66-29.35 57.832 0 22.086 79.036 93.446 187.992 211.084 187.992 120.86 0 212-100.182 212-233.030 0-177.53-186.060-306.166-452-537.172z" />
<glyph unicode="&#xe907;" glyph-name="magnifiying-glass" d="M1012.338 3.963l-249.906 249.901c62.118 74.699 99.542 170.621 99.542 275.137 0 237.654-193.34 431-430.984 431-237.649 0-430.989-193.346-430.989-431 0-237.638 193.34-430.968 430.989-430.968 104.511 0 200.438 37.418 275.137 99.537l249.911-249.906c7.771-7.777 17.963-11.662 28.15-11.662s20.379 3.886 28.155 11.662c15.548 15.548 15.548 40.752-0.005 56.3zM79.625 529c0 193.749 157.621 351.375 351.364 351.375 193.738 0 351.354-157.626 351.354-351.375 0-193.733-157.615-351.343-351.354-351.343-193.744 0-351.364 157.61-351.364 351.343z" />
<glyph unicode="&#xe908;" glyph-name="play-button" d="M117.071-58.166c7.031-3.897 14.801-5.834 22.565-5.834 8.574 0 17.135 2.368 24.669 7.075l744.727 465.451c13.61 8.505 21.876 23.422 21.876 39.471s-8.266 30.965-21.876 39.471l-744.727 465.458c-14.352 8.971-32.436 9.443-47.234 1.241-14.798-8.204-23.98-23.791-23.98-40.712v-930.909c0-16.921 9.182-32.507 23.98-40.712z" />
<glyph unicode="&#xe909;" glyph-name="star" d="M1022.53 565.486c-3.528 10.862-12.914 18.778-24.214 20.418l-317.445 46.13-141.969 287.653c-5.052 10.24-15.482 16.722-26.9 16.722-11.42 0-21.848-6.482-26.902-16.722l-141.975-287.653-317.439-46.13c-11.298-1.64-20.688-9.556-24.216-20.416-3.53-10.862-0.586-22.784 7.592-30.754l229.695-223.907-54.216-316.165c-1.932-11.256 2.696-22.628 11.934-29.342 5.226-3.796 11.416-5.728 17.636-5.728 4.776 0 9.568 1.138 13.956 3.446l283.933 149.275 283.921-149.273c10.11-5.314 22.356-4.43 31.594 2.282s13.868 18.088 11.938 29.344l-54.234 316.161 229.721 223.909c8.176 7.968 11.122 19.89 7.59 30.75z" />
<glyph unicode="&#xe90a;" glyph-name="star-1" d="M229.193-43.294c-11.219 0-22.36 3.5-31.868 10.375-17.711 12.836-25.985 34.899-21.165 56.189l65.877 290.187-223.412 195.927c-16.422 14.336-22.696 37.040-15.954 57.814 6.742 20.735 25.087 35.415 46.806 37.423l295.601 26.837 116.87 273.499c8.617 20.094 28.243 33.071 50.048 33.071s41.431-12.977 50.048-33.024l116.87-273.546 295.554-26.837c21.766-1.961 40.11-16.688 46.853-37.423s0.508-43.478-15.914-57.814l-223.412-195.888 65.877-290.179c4.828-21.336-3.453-43.4-21.157-56.197-17.665-12.797-41.22-13.782-59.822-2.602l-254.897 152.324-254.897-152.41c-8.617-5.117-18.219-7.727-27.907-7.727zM511.998 182.462c9.688 0 19.282-2.602 27.907-7.719l240.561-143.879-62.173 273.89c-4.438 19.493 2.18 39.845 17.243 53.033l210.951 185.005-279.093 25.344c-20.094 1.836-37.376 14.469-45.228 32.985l-110.167 258.1-110.3-258.139c-7.766-18.391-25.048-31.024-45.095-32.86l-279.132-25.344 210.943-185.005c15.11-13.227 21.719-33.54 17.243-53.079l-62.127-273.882 240.561 143.832c8.617 5.117 18.219 7.719 27.907 7.719zM342.821 626.169s0-0.047-0.047-0.086zM681.088 626.294l0.047-0.086c0 0.047 0 0.047-0.047 0.086z" />
<glyph unicode="&#xe90b;" glyph-name="maps-and-flags" d="M512 960c-204.49 0-370.854-166.364-370.854-370.852 0-253.776 331.878-626.334 346.008-642.070 13.272-14.782 36.444-14.756 49.692 0 14.13 15.736 346.008 388.294 346.008 642.070-0.004 204.488-166.366 370.852-370.854 370.852zM512 20.542c-111.694 132.676-304.070 394.434-304.070 568.602 0 167.668 136.404 304.072 304.070 304.072s304.070-136.404 304.070-304.070c-0.002-174.176-192.348-435.886-304.070-568.604zM512 775.732c-102.884 0-186.584-83.702-186.584-186.586s83.702-186.586 186.584-186.586 186.582 83.702 186.582 186.586-83.7 186.586-186.582 186.586zM512 469.344c-66.060 0-119.8 53.742-119.8 119.802s53.742 119.802 119.8 119.802 119.8-53.742 119.8-119.802-53.742-119.802-119.8-119.802z" />
<glyph unicode="&#xe90c;" glyph-name="opened" d="M1005.462 626.188l-478.61 237.698c-9.356 4.648-20.35 4.648-29.708 0l-478.608-237.698c-11.292-5.616-18.536-17.258-18.536-29.908v-534.26c0-18.44 14.95-33.392 33.392-33.392h957.218c18.44 0 33.392 14.95 33.392 33.392v534.26c-0.002 12.354-6.952 24.146-18.54 29.908zM512 796.696l403.538-200.416c-17.968-8.924-386.488-191.948-403.538-200.416-17.468 8.676-385.48 191.448-403.538 200.416l403.538 200.416zM957.218 95.41h-890.436v447.002l296.738-147.372-216.592-148.726c-15.204-10.438-19.064-31.226-8.626-46.428s31.226-19.062 46.428-8.624l247.25 169.776 65.166-32.366c9.322-4.632 20.314-4.666 29.71 0l65.164 32.366 247.25-169.776c15.198-10.438 35.992-6.576 46.428 8.624 10.438 15.204 6.578 35.99-8.626 46.428l-216.594 148.726 296.74 147.374v-447.004z" />
<glyph unicode="&#xe90d;" glyph-name="user" d="M504.702 466.735c67.765 0 126.437 24.305 174.39 72.258 47.937 47.945 72.25 106.609 72.25 174.382 0 67.75-24.305 126.422-72.258 174.382-47.953 47.937-106.625 72.242-174.382 72.242-67.773 0-126.437-24.305-174.382-72.25s-72.258-106.617-72.258-174.375c0-67.773 24.312-126.445 72.258-174.39 47.961-47.937 106.633-72.25 174.382-72.25zM372.757 845.321c36.789 36.789 79.945 54.672 131.945 54.672 51.992 0 95.156-17.883 131.953-54.672 36.789-36.797 54.68-79.961 54.68-131.945 0-52-17.891-95.156-54.68-131.953-36.797-36.797-79.961-54.68-131.953-54.68-51.984 0-95.14 17.891-131.945 54.68-36.797 36.789-54.687 79.953-54.687 131.953 0 51.984 17.891 95.148 54.687 131.945zM936.256 172.595c-1.383 19.953-4.18 41.719-8.297 64.703-4.156 23.156-9.508 45.047-15.914 65.055-6.625 20.68-15.617 41.101-26.75 60.672-11.539 20.312-25.102 38-40.32 52.555-15.914 15.227-35.398 27.469-57.93 36.398-22.453 8.883-47.336 13.383-73.953 13.383-10.453 0-20.562-4.289-40.086-17-12.016-7.836-26.070-16.898-41.758-26.922-13.414-8.547-31.586-16.555-54.031-23.805-21.898-7.086-44.133-10.68-66.086-10.68-21.937 0-44.172 3.594-66.086 10.68-22.422 7.242-40.601 15.25-53.992 23.797-15.539 9.93-29.602 18.992-41.797 26.937-19.508 12.711-29.617 17-40.070 17-26.625 0-51.5-4.508-73.945-13.398-22.516-8.914-42.008-21.156-57.937-36.398-15.219-14.562-28.781-32.242-40.312-52.547-11.117-19.57-20.117-39.984-26.742-60.68-6.398-20.008-11.75-41.891-15.906-65.047-4.125-22.953-6.914-44.726-8.297-64.726-1.359-19.555-2.047-39.906-2.047-60.469 0-53.453 16.992-96.726 50.5-128.64 33.094-31.492 76.875-47.461 130.133-47.461h493.062c53.242 0 97.023 15.969 130.125 47.461 33.516 31.891 50.508 75.18 50.508 128.648-0.008 20.633-0.703 40.984-2.070 60.484zM846.444 26.939c-21.867-20.812-50.898-30.93-88.758-30.93h-493.054c-37.867 0-66.898 10.117-88.758 30.922-21.445 20.414-31.867 48.281-31.867 85.172 0 19.187 0.633 38.133 1.898 56.32 1.234 17.844 3.758 37.445 7.5 58.273 3.695 20.57 8.398 39.875 13.992 57.351 5.367 16.758 12.687 33.351 21.766 49.336 8.664 15.234 18.633 28.305 29.633 38.836 10.289 9.852 23.258 17.914 38.539 23.961 14.133 5.594 30.016 8.656 47.258 9.117 2.102-1.117 5.844-3.25 11.906-7.203 12.336-8.039 26.555-17.211 42.273-27.25 17.719-11.297 40.547-21.5 67.82-30.305 27.883-9.016 56.32-13.594 84.547-13.594s56.672 4.578 84.539 13.586c27.297 8.82 50.117 19.016 67.859 30.328 16.086 10.281 29.906 19.187 42.242 27.234 6.062 3.945 9.805 6.086 11.906 7.203 17.25-0.461 33.133-3.523 47.273-9.117 15.273-6.047 28.242-14.117 38.531-23.961 11-10.523 20.969-23.594 29.633-38.844 9.086-15.977 16.414-32.578 21.773-49.32 5.602-17.5 10.312-36.797 14-57.351 3.734-20.867 6.266-40.476 7.5-58.289v-0.016c1.273-18.117 1.914-37.055 1.922-56.297-0.008-36.898-10.43-64.758-31.875-85.164z" />
<glyph unicode="&#xe90e;" glyph-name="shopping-cart" d="M329.922 297.992h0.047c0.039 0 0.078 0.008 0.117 0.008h543.914c13.391 0 25.164 8.883 28.844 21.758l120 420c2.586 9.055 0.773 18.789-4.891 26.305-5.672 7.516-14.539 11.937-23.953 11.937h-733.265l-21.445 96.508c-3.055 13.727-15.227 23.492-29.289 23.492h-180c-16.57 0-30-13.43-30-30s13.43-30 30-30h155.937c3.797-17.102 102.625-461.836 108.312-487.422-31.883-13.859-54.25-45.648-54.25-82.578 0-49.625 40.375-90 90-90h544c16.57 0 30 13.43 30 30s-13.43 30-30 30h-544c-16.539 0-30 13.461-30 30 0 16.516 13.414 29.953 29.922 29.992zM954.226 718l-102.859-360h-497.304l-80 360zM300 88c0-49.625 40.375-90 90-90s90 40.375 90 90-40.375 90-90 90-90-40.375-90-90zM390 118c16.539 0 30-13.461 30-30s-13.461-30-30-30-30 13.461-30 30 13.461 30 30 30zM724 88c0-49.625 40.375-90 90-90s90 40.375 90 90-40.375 90-90 90-90-40.375-90-90zM814 118c16.539 0 30-13.461 30-30s-13.461-30-30-30-30 13.461-30 30 13.461 30 30 30z" />
<glyph unicode="&#xe90f;" glyph-name="plus" d="M552 488v472h-80v-472h-472v-80h472v-472h80v472h472v80z" />
<glyph unicode="&#xe910;" glyph-name="menu" d="M0 220.445h1024v-113.779h-1024v113.779zM0 504.888h1024v-113.779h-1024v113.779zM0 789.333h1024v-113.779h-1024v113.779z" />
<glyph unicode="&#xe911;" glyph-name="menu-1" d="M981.333 406.219h-938.667c-23.552 0-42.667 19.115-42.667 42.667s19.115 42.667 42.667 42.667h938.667c23.552 0 42.667-19.115 42.667-42.667s-19.115-42.667-42.667-42.667zM981.333 733.333h-938.667c-23.552 0-42.667 19.115-42.667 42.667s19.115 42.667 42.667 42.667h938.667c23.552 0 42.667-19.115 42.667-42.667s-19.115-42.667-42.667-42.667zM981.333 79.115h-938.667c-23.552 0-42.667 19.115-42.667 42.667s19.115 42.667 42.667 42.667h938.667c23.552 0 42.667-19.115 42.667-42.667s-19.115-42.667-42.667-42.667z" />
<glyph unicode="&#xe912;" glyph-name="left-arrow" d="M1024 480.253h-900.515l202.973 202.975-45.614 45.614-280.844-280.842 280.844-280.846 45.614 45.616-202.973 202.973h900.515z" />
<glyph unicode="&#xe913;" glyph-name="right-arrow" d="M743.156 728.843l-45.612-45.614 202.973-202.975h-900.517v-64.509h900.517l-202.973-202.973 45.612-45.614 280.844 280.844z" />
<glyph unicode="&#xe914;" glyph-name="minus" d="M0 488h1024v-80h-1024v80z" />
<glyph unicode="&#xe915;" glyph-name="check-mark" d="M512.003 959.997c-282.32 0-512.003-229.68-512.003-511.997s229.683-511.997 512.003-511.997c282.317 0 511.997 229.68 511.997 511.997s-229.68 511.997-511.997 511.997zM512.003 19.937c-236.039 0-428.069 192.024-428.069 428.063 0 236.035 192.031 428.063 428.069 428.063 236.035 0 428.063-192.027 428.063-428.063 0-236.039-192.027-428.063-428.063-428.063zM733.491 644.509l-303.995-303.998-138.988 138.988c-16.391 16.387-42.961 16.387-59.351 0-16.387-16.391-16.387-42.961 0-59.351l168.663-168.663c8.195-8.192 18.935-12.291 29.676-12.291s21.48 4.099 29.676 12.291l333.671 333.671c16.387 16.391 16.387 42.961 0 59.351-16.391 16.391-42.964 16.391-59.351 0.003z" />
<glyph unicode="&#xe916;" glyph-name="right-arrow-1" d="M743.156 728.843l-45.612-45.614 202.973-202.975h-900.517v-64.509h900.517l-202.973-202.973 45.612-45.614 280.844 280.844z" />
<glyph unicode="&#xe917;" glyph-name="phone" d="M735.946-64c-33.055 0-65.829 5.844-97.878 17.487-141.19 51.29-272.245 134.826-379 241.58s-190.292 237.81-241.58 379c-16.481 45.374-21.345 92.212-14.451 139.218 6.458 44.030 23.513 86.774 49.324 123.613 25.925 37 60.488 67.775 99.95 88.996 42.082 22.629 88.014 34.105 136.524 34.105 15.087 0 28.127-10.542 31.289-25.293l50.226-234.388c2.274-10.614-0.988-21.657-8.662-29.333l-85.822-85.82c80.961-160.965 212.331-292.336 373.297-373.297l85.82 85.822c7.676 7.674 18.721 10.932 29.333 8.662l234.388-50.226c14.753-3.162 25.293-16.201 25.293-31.289 0-48.51-11.476-94.444-34.107-136.526-21.221-39.462-51.996-74.025-88.996-99.95-36.836-25.811-79.581-42.866-123.613-49.324-13.797-2.026-27.593-3.036-41.334-3.038zM263.267 894.603c-63.987-7.064-120.781-40.602-158.495-94.43-42.41-60.528-52.3-134.974-27.133-204.256 98.604-271.441 310.837-483.674 582.278-582.278 69.279-25.167 143.726-15.279 204.256 27.133 53.828 37.714 87.366 94.508 94.43 158.495l-190.674 40.858-89.628-89.628c-9.538-9.538-24.029-12.072-36.233-6.336-190.372 89.436-344.47 243.534-433.906 433.906-5.734 12.205-3.202 26.697 6.336 36.233l89.628 89.628z" />
<glyph unicode="&#xe918;" glyph-name="left-quote" d="M327.742 488.033c-25.221 7.261-50.442 10.945-74.975 10.945-37.885 0-69.497-8.658-94.009-19.259 23.631 86.511 80.399 235.785 193.485 252.595 10.473 1.558 19.055 9.13 21.912 19.324l24.716 88.402c2.084 7.476 0.849 15.478-3.416 21.966s-11.117 10.817-18.797 11.869c-8.346 1.139-16.853 1.719-25.285 1.719-135.739 0-270.168-141.679-326.893-344.541-33.298-119.015-43.062-297.945 38.959-410.569 45.898-63.020 112.86-96.673 199.028-100.035 0.354-0.011 0.698-0.021 1.053-0.021 106.318 0 200.596 71.602 229.275 174.107 17.133 61.28 9.388 125.546-21.827 181.003-30.882 54.835-81.742 94.804-143.226 112.495zM993.269 375.528c-30.882 54.846-81.742 94.814-143.226 112.506-25.221 7.261-50.442 10.945-74.964 10.945-37.885 0-69.508-8.658-94.020-19.259 23.631 86.511 80.399 235.785 193.496 252.595 10.473 1.558 19.045 9.13 21.912 19.324l24.716 88.402c2.084 7.476 0.849 15.478-3.416 21.966-4.254 6.488-11.107 10.817-18.797 11.869-8.335 1.139-16.843 1.719-25.285 1.719-135.739 0-270.168-141.679-326.904-344.541-33.288-119.015-43.052-297.945 38.981-410.59 45.887-63.009 112.86-96.673 199.017-100.024 0.354-0.011 0.698-0.021 1.063-0.021 106.308 0 200.596 71.602 229.275 174.107 17.111 61.28 9.356 125.556-21.848 181.003z" />
<glyph unicode="&#xe919;" glyph-name="placeholder" d="M512 960c-211.776 0-384-172.224-384-384 0-266.176 346.624-615.872 361.344-630.656 6.272-6.208 14.464-9.344 22.656-9.344s16.384 3.136 22.656 9.344c14.72 14.784 361.344 364.48 361.344 630.656 0 211.776-172.224 384-384 384zM512 14.272c-76.416 81.792-320 358.4-320 561.728 0 176.448 143.552 320 320 320s320-143.552 320-320c0-203.136-243.584-479.936-320-561.728zM512 768c-105.856 0-192-86.144-192-192s86.144-192 192-192c105.856 0 192 86.144 192 192s-86.144 192-192 192zM512 448c-70.592 0-128 57.408-128 128s57.408 128 128 128 128-57.408 128-128-57.408-128-128-128z" />
<glyph unicode="&#xe91a;" glyph-name="calendar" d="M914.286 850.286h-109.714v73.142c0 20.199-16.374 36.572-36.572 36.572s-36.572-16.374-36.572-36.572v-73.142h-438.857v73.142c0 20.199-16.374 36.572-36.57 36.572s-36.572-16.374-36.572-36.572v-73.142h-109.714c-60.594 0-109.714-49.121-109.714-109.714v-694.857c0-60.594 49.121-109.714 109.714-109.714h804.572c60.594 0 109.714 49.121 109.714 109.714v694.857c0 60.594-49.121 109.714-109.714 109.714zM950.856 45.714c0-20.199-16.374-36.572-36.572-36.572h-804.569c-20.199 0-36.572 16.374-36.572 36.572v475.429h877.714v-475.429zM950.856 594.285h-877.714v146.286c0 20.199 16.374 36.572 36.572 36.572h109.714v-73.142c0-20.199 16.374-36.572 36.572-36.572s36.572 16.374 36.572 36.572v73.142h438.857v-73.142c0-20.199 16.374-36.572 36.572-36.572s36.572 16.374 36.572 36.572v73.142h109.714c20.199 0 36.572-16.374 36.572-36.572v-146.286zM292.571 448.001h-73.142c-20.199 0-36.572-16.374-36.572-36.572s16.374-36.572 36.572-36.572h73.142c20.199 0 36.572 16.374 36.572 36.572s-16.374 36.572-36.572 36.572zM548.571 448.001h-73.142c-20.199 0-36.572-16.374-36.572-36.572s16.374-36.572 36.572-36.572h73.142c20.199 0 36.572 16.374 36.572 36.572s-16.374 36.572-36.572 36.572zM804.572 448.001h-73.142c-20.199 0-36.572-16.374-36.572-36.572s16.374-36.572 36.572-36.572h73.142c20.199 0 36.572 16.374 36.572 36.572-0.002 20.199-16.376 36.572-36.572 36.572zM292.571 301.715h-73.142c-20.199 0-36.572-16.374-36.572-36.572s16.374-36.572 36.572-36.572h73.142c20.199 0 36.572 16.374 36.572 36.572s-16.374 36.572-36.572 36.572zM548.571 301.715h-73.142c-20.199 0-36.572-16.374-36.572-36.572s16.374-36.572 36.572-36.572h73.142c20.199 0 36.572 16.374 36.572 36.572s-16.374 36.572-36.572 36.572zM804.572 301.715h-73.142c-20.199 0-36.572-16.374-36.572-36.572s16.374-36.572 36.572-36.572h73.142c20.199 0 36.572 16.374 36.572 36.572-0.002 20.199-16.376 36.572-36.572 36.572zM292.571 155.428h-73.142c-20.199 0-36.572-16.374-36.572-36.572s16.374-36.57 36.572-36.57h73.142c20.199 0 36.572 16.374 36.572 36.572s-16.374 36.57-36.572 36.57zM548.571 155.428h-73.142c-20.199 0-36.572-16.374-36.572-36.572s16.374-36.572 36.572-36.572h73.142c20.199 0 36.572 16.374 36.572 36.572s-16.374 36.572-36.572 36.572zM804.572 155.428h-73.142c-20.199 0-36.572-16.374-36.572-36.572s16.374-36.572 36.572-36.572h73.142c20.199 0 36.572 16.374 36.572 36.572s-16.376 36.572-36.572 36.572z" />
<glyph unicode="&#xe91b;" glyph-name="right-quotes-symbol" d="M1023.77 646.23c0 0.111 0.012 0.222 0.012 0.333 0 134.626-109.133 243.759-243.759 243.759s-243.757-109.131-243.757-243.759c0-134.628 109.143-243.759 243.759-243.759 27.668 0 54.152 4.823 78.934 13.321-54.842-314.611-300.179-517.503-72.754-350.518 252.183 185.167 237.848 573.519 237.566 580.624zM243.759 402.805c27.668 0 54.152 4.823 78.946 13.321-54.856-314.611-300.193-517.503-72.766-350.518 252.183 185.165 237.85 573.517 237.566 580.622 0 0.111 0.012 0.222 0.012 0.333 0 134.626-109.131 243.759-243.757 243.759-134.628 0-243.759-109.131-243.759-243.759s109.143-243.757 243.759-243.757z" />
<glyph unicode="&#xe91c;" glyph-name="add" d="M1007.484 464.516h-478.968v478.968c0 9.121-7.395 16.516-16.516 16.516s-16.516-7.395-16.516-16.516v-478.968h-478.968c-9.121 0-16.516-7.395-16.516-16.516s7.395-16.516 16.516-16.516h478.968v-478.968c0-9.121 7.395-16.516 16.516-16.516s16.516 7.395 16.516 16.516v478.968h478.968c9.121 0 16.516 7.395 16.516 16.516s-7.395 16.516-16.516 16.516z" />
<glyph unicode="&#xe91d;" glyph-name="right-arrow-2" d="M1007.633 487.786l-369.803 369.811c-10.556 10.556-24.626 16.351-39.628 16.351-15.019 0-29.080-5.803-39.636-16.351l-33.575-33.584c-10.548-10.54-16.359-24.617-16.359-39.628 0-15.002 5.811-29.554 16.359-40.094l215.738-216.212h-685.408c-30.903 0-55.321-24.193-55.321-55.104v-47.478c0-30.911 24.418-57.543 55.321-57.543h687.856l-218.177-217.419c-10.548-10.556-16.359-24.251-16.359-39.261 0-14.994 5.811-28.888 16.359-39.436l33.575-33.475c10.556-10.556 24.617-16.309 39.636-16.309 15.002 0 29.071 5.828 39.628 16.384l369.803 369.803c10.581 10.59 16.401 24.726 16.359 39.753 0.033 15.077-5.778 29.221-16.367 39.794z" />
<glyph unicode="&#xe91e;" glyph-name="long-arrow-pointing-to-the-right" d="M1018.068 463.359l-227.55 207.411c-6.322 5.135-13.234 6.123-20.741 2.962-7.499-3.165-11.264-8.89-11.264-17.19v-132.742h-739.55c-5.533 0-10.079-1.775-13.63-5.33-3.549-3.553-5.332-8.099-5.332-13.628v-113.775c0-5.527 1.775-10.073 5.33-13.622 3.56-3.553 8.105-5.328 13.63-5.328h739.556v-132.74c0-7.912 3.771-13.637 11.266-17.182 7.514-3.174 14.425-1.974 20.748 3.545l227.55 209.793c3.95 3.948 5.92 8.68 5.92 14.216 0 5.123-1.982 9.66-5.932 13.61z" />
<glyph unicode="&#xe91f;" glyph-name="instagram" d="M746.811 960h-469.624c-152.843 0-277.187-124.344-277.187-277.187v-469.632c0-152.836 124.344-277.179 277.187-277.179h469.632c152.836 0 277.179 124.344 277.179 277.179v469.632c0 152.843-124.344 277.187-277.187 277.187zM963.967 213.181c0-119.734-97.414-217.148-217.156-217.148h-469.624c-119.742 0-217.156 97.414-217.156 217.148v469.632c0 119.742 97.414 217.156 217.156 217.156h469.632c119.734 0 217.148-97.414 217.148-217.156zM511.999 727.993c-154.39 0-279.992-125.601-279.992-279.992s125.601-279.992 279.992-279.992 279.992 125.601 279.992 279.992-125.601 279.992-279.992 279.992zM511.999 228.040c-121.281 0-219.961 98.672-219.961 219.961 0 121.281 98.68 219.961 219.961 219.961 121.289 0 219.961-98.68 219.961-219.961 0-121.289-98.672-219.961-219.961-219.961zM798.686 827.43c-45.625 0-82.734-37.117-82.734-82.734 0-45.625 37.109-82.742 82.734-82.742s82.742 37.117 82.742 82.742-37.117 82.734-82.742 82.734zM798.686 721.993c-12.516 0-22.703 10.187-22.703 22.703 0 12.523 10.187 22.703 22.703 22.703 12.523 0 22.711-10.18 22.711-22.703 0-12.516-10.187-22.703-22.711-22.703z" />
<glyph unicode="&#xe920;" glyph-name="behance" d="M32 149.333h302.592c194.219 0 261.589 257.579 89.899 349.995 115.243 100.437 43.904 290.005-110.72 290.005h-281.771c-17.664 0-32-14.336-32-32v-576c0-17.664 14.336-32 32-32zM64 725.333h249.771c137.003 0 137.173-203.435 0-203.435h-249.771zM64 457.899h270.592c164.736 0 164.736-244.565 0-244.565h-270.592zM783.957 624.768c-139.051 0-245.547-123.221-240.427-220.117-10.539-139.947 102.272-255.317 240.427-255.317 85.845 0 165.888 45.44 208.853 118.656 21.461 36.565-33.749 68.821-55.168 32.427-31.531-53.717-90.453-87.083-153.685-87.083-93.312 0-169.173 71.168-176 160.896 61.568-0.725 176.469 8.021 383.445 1.408 0.683 0 1.152 0.341 1.792 0.341 85.333 3.84-8.064 248.789-209.237 248.789zM616.363 441.387c54.869 161.664 286.635 156.843 336.64-2.731-173.397-4.139-277.163 2.816-336.64 2.731zM909.141 684.203c42.368 0 42.325 64 0 64h-250.453c-42.368 0-42.325-64 0-64z" />
<glyph unicode="&#xe921;" glyph-name="shopping-cart-1" d="M382.499 171.375c-47.235 0-85.531-38.275-85.531-85.492 0-47.254 38.296-85.531 85.531-85.531 47.217 0 85.512 38.277 85.512 85.531 0 47.213-38.296 85.492-85.512 85.492zM755.745 171.375c-47.254 0-85.531-38.275-85.531-85.492 0-47.254 38.277-85.531 85.531-85.531 47.219 0 85.533 38.277 85.533 85.531 0 47.213-38.314 85.492-85.533 85.492zM970.582 640.161l-473.743 0.039c-23.688 0-42.891-19.203-42.891-42.891s19.203-42.891 42.891-42.891l419.145 0.021-26.59-89.983-426.144-0.091c-21.974 0-39.79-17.816-39.79-39.79 0-21.976 17.816-39.79 39.79-39.79l402.588-0.157-24.996-84.158h-480.241l-31.863 254.007-30.424 247.457c-2.476 19.581-16.673 35.658-35.799 40.536l-202.567 51.675c-25.718 6.565-51.884-8.969-58.445-34.687s8.969-51.886 34.687-58.445l170.874-43.591 66.541-499.372c0 0 2.263-58.255 55.169-58.255h530.829c44.478 0 53.077 46.38 53.077 46.38l105.203 312.448c0 0.041 31.193 81.537-47.299 81.537z" />
<glyph unicode="&#xe922;" d="M958.36 776.206h-892.718c-36.262 0-65.642 29.38-65.642 65.64s29.38 65.642 65.642 65.642h892.718c36.26 0 65.64-29.38 65.64-65.642s-29.38-65.64-65.64-65.64z" />
<glyph unicode="&#xe923;" d="M590.77 382.358h-525.128c-36.262 0-65.642 29.382-65.642 65.642s29.38 65.642 65.642 65.642h525.128c36.26 0 65.642-29.38 65.642-65.642s-29.382-65.642-65.642-65.642z" />
<glyph unicode="&#xe924;" d="M958.36 382.358h-105.026c-36.26 0-65.642 29.38-65.642 65.642s29.38 65.642 65.642 65.642h105.026c36.26 0 65.64-29.38 65.64-65.642s-29.38-65.642-65.64-65.642z" />
<glyph unicode="&#xe925;" d="M958.36-11.488h-892.718c-36.262 0-65.642 29.382-65.642 65.642s29.38 65.642 65.642 65.642h892.718c36.26 0 65.64-29.38 65.64-65.642 0-36.26-29.38-65.642-65.64-65.642z" />
<glyph unicode="&#xe926;" glyph-name="location" d="M512.004 467.61c66.166 0 119.996 53.832 119.996 120s-53.83 120-119.996 120c-66.17 0-120.004-53.832-120.004-120s53.834-120 120.004-120zM512.004 647.61c33.082 0 59.996-26.916 59.996-60s-26.914-60-59.996-60c-33.086 0-60.004 26.916-60.004 60s26.918 60 60.004 60zM893.722 270h-200.782c93.754 89.49 179.060 177.21 179.060 330 0 205.864-154.58 360-359.996 360-205.832 0-360.004-154.594-360.004-360 0-152.79 85.308-240.51 179.064-330h-200.786l-109.71-334h982.864zM212 600c0 173.832 126.17 300 300.004 300 173.83 0 299.996-126.168 299.996-300 0-194.476-164.152-263.356-299.996-430.846-40.824 50.332-84.484 91.878-126.94 132.272-96.692 92.002-173.064 164.672-173.064 298.574zM127.738 70h216.262v60h-196.554l26.278 80h218.276v1.348c79.692-79.026 101.252-118.634 120.004-142.252 19.216 24.204 40.072 62.988 119.996 142.248v-1.344h218.278l26.278-80h-196.556v-60h216.262l24.306-74h-817.136z" />
<glyph unicode="&#xe927;" glyph-name="email" d="M919.578 631.703c-23.719 57-58.617 109.32-103.578 154.297-90.281 90.281-210.32 140-338 140s-247.719-49.719-338-140c-90.281-90.297-140-210.32-140-338s49.719-247.719 140-338c90.281-90.281 210.32-140 338-140s247.719 49.719 338 140c40.602 40.602 73 87.219 96.359 137.859h111.641v383.844zM964 307.859h-456v232.18l228-178.797 228 178.797zM736 437.5l-171.117 134.203h342.234zM508 631.703v199.938c40.758-38.984 98.844-106.32 135.5-199.938zM448 831.711v-353.664h-169.258c5.852 102.242 41.68 197.5 106.75 283.563 21.914 28.977 43.984 52.438 62.508 70.102zM448 418.047v-353.766c-18.523 17.664-40.594 41.125-62.508 70.102-65.094 86.086-100.922 181.383-106.75 283.664zM508 64.297v183.563h129.117c-16.977-39.336-39.219-77.242-66.617-113.477-21.922-28.984-43.977-52.422-62.5-70.086zM853.422 631.703h-146.023c-20.398 59.297-50.742 115.859-90.477 168-16.539 21.68-33.063 40.5-48.359 56.414 125.297-27.773 229.617-111.961 284.859-224.414zM387.438 856.117c0.008 0 0.008 0 0.008 0.008-15.313-15.922-31.836-34.734-48.367-56.43-72.969-95.75-114.258-206.391-120.375-321.648h-157.625c13.266 185.977 148.742 338.695 326.359 378.070zM61.063 418.039c0 0 0 0 0 0.008h157.633c6.109-115.297 47.391-225.969 120.383-321.75 16.531-21.688 33.047-40.5 48.359-56.414h-0.016c-177.641 39.398-313.125 192.156-326.359 378.156zM568.578 39.883c15.281 15.914 31.805 34.719 48.344 56.414 36.039 47.305 64.375 98.242 84.539 151.563h143.438c-57.055-104.18-157.219-181.563-276.32-207.977z" />
<glyph unicode="&#xe928;" glyph-name="clock-1" d="M512-64c283.152 0 512 228.778 512 512 0 283.16-228.786 512-512 512-283.152 0-512-228.78-512-512 0-283.16 228.786-512 512-512zM512 900c249.234 0 452-202.766 452-452s-202.766-452-452-452-452 202.766-452 452 202.766 452 452 452zM482 838h60v-60h-60zM122 478h60v-60h-60zM842 478h60v-60h-60zM482 118h60v-60h-60zM295.046 188.794l224.424 269.31 151.318-151.318 42.424 42.428-155.172 155.172 37.006 44.408-46.092 38.412-33.516-40.218-42.226 42.226-42.424-42.428 46.082-46.082-227.916-273.498z" />
<glyph unicode="&#xe929;" glyph-name="fear" d="M660.032 570c0 148.878-121.122 270-270 270s-270-121.122-270-270 121.122-270 270-270 270 121.122 270 270zM180.032 570c0 115.794 94.206 210 210 210s210-94.206 210-210-94.206-210-210-210-210 94.206-210 210zM270.032 660h60v-60h-60zM450.032 660h60v-60h-60zM992.59 262.574c-25.060 21.934-90.53 92.452-92.512 154.524-1.696 53.084-15.584 105.050-40.166 150.28-23.060 42.432-55.16 78.144-93.274 104-44.74 166.050-196.616 288.622-376.606 288.622-215.046 0-390-174.954-390-390 0-202.316 154.856-369.124 352.262-388.168 5.166-31.536 7.738-61.196 7.738-90.026v-155.806h300v93.956c142.604-37.478 222.622-28.562 240-29.956v162.774l123.938 72.336zM60.032 570c0 181.962 148.038 330 330 330s330-148.038 330-330-148.038-330-330-330-330 148.038-330 330zM840.032 197.226v-136.428c-111.996 5.84-211.584 41.376-240 49.23v-114.028h-180v95.806c0 28.766-2.264 58.116-6.824 88.902 206.618 12.17 371.41 186.294 366.714 398.062 36.206-43.744 58.216-101.82 60.19-163.586 2.176-68.16 51.232-132.964 84.018-168.874zM450.032 497.574l38.786-38.788 42.426 42.428-81.212 81.212-60-60-60 60-81.214-81.212 42.426-42.428 38.788 38.788 60-60z" />
<glyph unicode="&#xe92a;" glyph-name="business" d="M823.893 735.573c-7.467 0-15.019 2.603-21.077 7.936-80.768 70.827-184.064 109.824-290.816 109.824-100.608 0-198.997-35.285-277.077-99.413-13.696-11.221-33.877-9.216-45.056 4.437s-9.216 33.835 4.437 45.056c89.472 73.472 202.325 113.92 317.696 113.92 122.283 0 240.555-44.629 333.013-125.696 13.269-11.648 14.592-31.872 2.944-45.184-6.315-7.168-15.189-10.88-24.064-10.88zM309.333 746.667h-106.667c-17.664 0-32 14.336-32 32v106.667c0 12.928 7.808 24.619 19.755 29.568s25.728 2.219 34.859-6.955l106.667-106.667c9.131-9.131 11.904-22.912 6.955-34.859s-16.64-19.755-29.568-19.755zM517.12-21.333c-122.325 0-240.597 44.629-333.013 125.696-13.312 11.648-14.592 31.872-2.944 45.184 11.648 13.269 31.872 14.592 45.184 2.944 80.725-70.827 183.979-109.824 290.773-109.824 100.608 0 198.997 35.285 277.077 99.413 13.653 11.264 33.792 9.259 45.056-4.437 11.221-13.653 9.216-33.835-4.437-45.056-89.472-73.472-202.325-113.92-317.696-113.92zM821.333-21.333c-8.32 0-16.512 3.243-22.613 9.387l-106.667 106.667c-9.131 9.131-11.904 22.912-6.955 34.859s16.64 19.755 29.568 19.755h106.667c17.664 0 32-14.336 32-32v-106.667c0-12.928-7.808-24.619-19.755-29.568-3.968-1.621-8.107-2.432-12.245-2.432zM320 554.667c0-58.91-47.756-106.667-106.667-106.667s-106.667 47.756-106.667 106.667c0 58.91 47.756 106.667 106.667 106.667s106.667-47.756 106.667-106.667zM309.333 405.333h-192c-64.725 0-117.333-52.608-117.333-117.333v-21.333c0-17.664 14.336-32 32-32h362.667c17.664 0 32 14.336 32 32v21.333c0 64.725-52.608 117.333-117.333 117.333zM917.333 554.667c0-58.91-47.756-106.667-106.667-106.667s-106.667 47.756-106.667 106.667c0 58.91 47.756 106.667 106.667 106.667s106.667-47.756 106.667-106.667zM906.667 405.333h-192c-64.725 0-117.333-52.608-117.333-117.333v-21.333c0-17.664 14.336-32 32-32h362.667c17.664 0 32 14.336 32 32v21.333c0 64.725-52.608 117.333-117.333 117.333z" />
<glyph unicode="&#xe92b;" glyph-name="rest" d="M630.946 209.378h-38.222c37.39 45.224 59.92 103.354 59.92 166.684v256.086c0 62.26-50.652 112.91-112.91 112.91h-459.734v-170c0-37.462 23.014-69.64 55.64-83.168v-118.014c0-60.748 20.82-118.29 59.072-164.496h-37.16c-86.874-0.002-157.552-70.678-157.552-157.552v-115.828h788.498v115.828c0 86.874-70.678 157.55-157.552 157.55zM253.814 233.48c-37.512 37.496-58.172 87.356-58.172 140.394v111.184h367.002c10.516 0 20.61 1.83 30 5.16v-114.156c0-110.606-89.002-200.632-198.398-200.69-0.036 0-0.066 0-0.102 0-53.004 0.002-102.84 20.636-140.33 58.108zM140 685.058h399.734c29.174 0 52.91-23.736 52.91-52.91v-57.090c0-16.542-13.458-30-30-30h-392.644c-16.542 0-30 13.458-30 30zM728.498-4h-668.498v55.828c0 53.79 43.762 97.55 97.552 97.55h108.23c38.652-22.184 82.596-34.008 128.362-34.006h0.132c46.29 0.024 89.77 12.396 127.388 34.006h109.284c53.79 0 97.552-43.762 97.552-97.55v-55.828zM255.64 405.058h99.026v-60h-99.026zM433.618 405.058h99.026v-60h-99.026zM714.024 586.36h83.63l-83.63-55.612v-68.374h179.392v60h-83.63l83.63 55.61v68.376h-179.392zM1024 960h-229.122v-60h147.324l-147.324-97.966v-77.66h229.122v60h-147.324l147.324 97.966z" />
<glyph unicode="&#xe92c;" glyph-name="login" d="M940.685 307.090c15.316 45.289 23.080 92.628 23.080 141.272 0 117.991-45.947 228.916-129.379 312.346s-194.355 129.379-312.346 129.379h-20.078c-117.991 0-228.916-45.947-312.346-129.379s-129.379-194.355-129.379-312.346c0-48.644 7.764-95.983 23.080-141.272h-83.315v-301.176h1024v301.176zM120.471 448.361c0 210.356 171.134 381.49 381.49 381.49h20.078c210.356 0 381.49-171.134 381.49-381.49 0-48.987-9.096-96.419-27.022-141.272h-92.331c-7.628 39.882-25.261 77.531-51.509 109.028-28.134 33.76-64.373 58.673-104.719 72.907 30.824 29.913 50.033 71.732 50.033 117.975 0 90.702-73.79 164.493-164.493 164.493-90.7 0-164.491-73.79-164.491-164.493 0-45.937 18.95-87.516 49.417-117.387-40.544-13.971-77.051-38.691-105.43-72.298l-0.649-0.771c-26.646-31.555-44.574-69.343-52.377-109.454h-92.469c-17.926 44.853-27.022 92.284-27.022 141.272zM513.492 502.744c-57.487 0-104.255 46.769-104.255 104.255 0 57.489 46.769 104.257 104.255 104.257 57.489 0 104.257-46.769 104.257-104.257s-46.769-104.255-104.257-104.255zM547.718 442.509c53.732 0 104.279-23.674 138.676-64.954 17.187-20.623 29.429-44.767 36.071-70.467h-420.738c6.785 25.785 19.221 49.967 36.643 70.598l0.651 0.771c34.372 40.705 84.643 64.050 137.919 64.050h70.778zM963.765 66.148h-903.529v180.706h903.529zM481.882 186.619h60.235v-60.235h-60.235zM331.294 186.619h60.235v-60.235h-60.235zM180.706 186.619h60.235v-60.235h-60.235zM632.471 186.619h60.235v-60.235h-60.235zM783.059 186.619h60.235v-60.235h-60.235z" />
<glyph unicode="&#xe92d;" glyph-name="unknown" d="M743.555 300.374h-114.789v20.992c81.969 40.219 138.157 121.696 138.157 215.446v183.039c0 133.524-113.969 242.149-254.055 242.149s-254.055-108.625-254.055-242.141v-183.047c0-93.75 56.188-175.219 138.157-215.446v-20.992h-114.789c-96.047 0-174.18-78.133-174.18-174.18v-188.196h809.736v188.196c0 96.047-78.133 174.18-174.18 174.18zM318.804 536.812v183.039c0 100.446 87.055 182.157 194.063 182.157s194.063-81.719 194.063-182.157v-183.039c0-100.438-87.055-182.149-194.063-182.149s-194.063 81.711-194.063 182.149zM857.743-2.010h-121.438v96.563h-59.992v-96.563h-326.891v96.563h-59.992v-96.563h-121.438v128.203c0 62.961 51.227 114.188 114.188 114.188h174.782v60.203c18-3.867 36.703-5.914 55.906-5.914s37.906 2.055 55.906 5.914v-60.203h174.782c62.961 0 114.188-51.227 114.188-114.188zM512.867 651.999h-30v-105.946h60v50.367c42.758 12.906 73.985 52.664 73.985 99.578 0 57.336-46.649 103.985-103.985 103.985s-103.985-46.649-103.985-103.985h59.992c0 24.258 19.734 43.992 43.992 43.992s43.992-19.734 43.992-43.992c0-24.266-19.734-44-43.992-44zM483.117 511.89h59.5v-59.492h-59.5z" />
<glyph unicode="&#xe92e;" glyph-name="support" d="M814 960h-604c-115.794 0-210-94.206-210-210v-604c0-115.794 94.206-210 210-210h604c115.794 0 210 94.206 210 210v604c0 115.794-94.206 210-210 210zM172.040 745.534l127.682-127.682c-37.346-46.576-59.722-105.646-59.722-169.852s22.376-123.276 59.72-169.854l-127.68-127.68c-69.716 79.556-112.040 183.69-112.040 297.534s42.324 217.978 112.040 297.534zM724 448c0-116.898-95.102-212-212-212s-212 95.102-212 212 95.102 212 212 212 212-95.102 212-212zM342.146 235.72c46.578-37.344 105.648-59.72 169.854-59.72s123.276 22.376 169.854 59.72l127.682-127.682c-79.558-69.714-183.692-112.038-297.536-112.038s-217.978 42.324-297.534 112.040zM851.96 150.466l-127.682 127.682c37.346 46.576 59.722 105.646 59.722 169.852s-22.376 123.276-59.72 169.854l127.682 127.682c69.714-79.558 112.038-183.692 112.038-297.536s-42.324-217.978-112.040-297.534zM681.854 660.28c-46.578 37.344-105.648 59.72-169.854 59.72s-123.276-22.376-169.854-59.72l-127.68 127.68c79.556 69.716 183.69 112.040 297.534 112.040s217.978-42.324 297.534-112.040zM60 750c0 82.71 67.29 150 150 150h61.722c-89.834-47.948-163.774-121.888-211.722-211.722zM210-4c-82.71 0-150 67.29-150 150v61.722c47.948-89.834 121.888-163.774 211.722-211.722zM964 146c0-82.71-67.29-150-150-150h-61.722c89.834 47.948 163.774 121.888 211.722 211.722zM752.278 900h61.722c82.71 0 150-67.29 150-150v-61.722c-47.948 89.834-121.888 163.774-211.722 211.722z" />
<glyph unicode="&#xe92f;" glyph-name="speech-bubble" d="M553.418-9.93v69.56c0 131.7-102.714 240.376-233.984 247.752h-20.162c-165.018 0-299.272 134.254-299.272 299.274s134.254 299.274 299.274 299.274h425.454c165.018 0 299.272-134.254 299.272-299.272 0-165.020-134.254-299.274-299.274-299.274h-28.8c6.562-41.532 2.94-83.78-6.22-125.162-28.112-126.98-136.288-192.152-136.288-192.152zM299.274 845.93c-131.936 0-239.274-107.338-239.274-239.272 0-131.936 107.338-239.274 239.274-239.274l22.572-0.042c138.26-7.346 251.188-105.128 282.756-234.234 35.082 57.942 44.892 128.54 25.104 195.812l-11.314 38.464h106.334c131.936-0.002 239.274 107.336 239.274 239.272s-107.338 239.274-239.274 239.274zM431.996 691.792h282.046v-60h-282.046zM309.958 691.792h60.002v-60h-60.002zM309.958 571.786h282.046v-60h-282.046zM654.038 571.786h60.002v-60h-60.002z" />
<glyph unicode="&#xe930;" glyph-name="meeting" d="M897.14 436.686c-19.994 48.402-67.684 82.56-123.222 82.56-20.922 0-40.724-4.858-58.36-13.488v45.572c0 64.728-33.676 123.968-86.17 158.048 0 0-19.828 30.078-20.428 30.99 0 0 6.168 5.814 7.264 6.952 23.252 24.116 36.814 58.384 40.98 91.328 1.27 10.054 1.332 20.34-0.756 30.292-1.116 5.324-2.876 10.52-5.38 15.354-6.764 13.054-16.73 19.232-23.172 22.012-15.994 21.162-32.312 34.422-52.436 42.718-52.958 21.836-109.714 7.22-144.596-37.222-22.146-28.216-57.394-44.248-57.726-44.398l-31.084-13.842 31.34-13.25c10.114-4.278 19.996-7.894 29.632-10.94 1.434-35.456 17.76-67.122 42.884-88.93l-20.434-31.002c-52.554-34.014-86.208-93.136-86.208-158.11v-66.418c-23.636 21.324-54.916 34.334-89.182 34.334-55.538 0-103.23-34.158-123.222-82.56-76.894-25.040-126.864-59.304-126.864-102.16v-75.322c0-30.174 25.152-57.568 73.554-80.892-16.202-29.054-25.452-62.492-25.452-98.054v-143.28h927.794v143.28c0 35.562-9.252 69-25.452 98.054 48.404 23.324 73.556 50.718 73.556 80.892v75.322c0 42.856-49.972 77.12-126.86 102.16zM906.168 402.212c64.174-23.814 88.294-49.574 88.294-67.686 0-20.914-32.15-52.024-121.018-78.564-10.324 5.87-21.216 10.854-32.568 14.854 39.616 23.126 66.314 66.070 66.314 115.156 0.002 5.5-0.374 10.914-1.022 16.24zM773.918 489.708c57.2 0 103.736-46.534 103.736-103.736s-46.534-103.736-103.736-103.736c-57.2 0-103.736 46.534-103.736 103.736s46.536 103.736 103.736 103.736zM625.296 676.016c37.358-29.506 60.724-75.186 60.724-124.684v-65.306c-2.822-2.484-5.536-5.082-8.138-7.792-12.938 1.254-26.004 2.366-39.168 3.324v64.266h-29.538v-62.378c-17.966 0.994-36.036 1.716-54.112 2.158l14.224 13.786v113.326l56.008 63.3zM527.412 688.192l-20.464 23.46c6.662-1.106 13.492-1.712 20.464-1.712 6.932 0 13.77 0.598 20.472 1.722l-20.472-23.47zM539.744 603.456v-91.558l-12.334-11.956-12.336 11.956v91.488c0.638-0.002 1.26-0.002 1.948-0.002 5.638 0 13.022 0.022 22.722 0.072zM509.376 663.93l-11.664-20.402-46.022 52.010 12.962 19.662 44.724-51.27zM590.17 715.204l12.96-19.662-46.020-52.010-11.662 20.4 44.722 51.272zM454.098 893.564c26.492 33.754 69.712 44.802 110.104 28.154 16.134-6.652 28.852-17.556 42.524-36.46l3.344-4.622 5.33-1.122c0.948-0.282 6.26-2.158 9.78-9.486 2.402-5.002 4.742-14.328 2.328-30.406-4.496 11.586-10.014 22.474-16.478 29.242l-8.522 8.846-10.276-6.714c-0.212-0.14-21.704-13.992-57.862-21.264-39.116-7.868-79.522-5.442-120.494 7.188 12.936 8.81 28.006 21.078 40.222 36.644zM433.344 821.464c79.006-16.316 137.486 5.452 162.246 17.684 6.238-12.738 12.248-33.396 15.734-49.202-16.394-30.84-48.7-50.468-83.912-50.468-47.962 0-87.71 35.742-94.068 81.986zM368.804 551.332c0 49.664 23.322 95.27 60.688 124.726l56.048-63.34v-113.326l13.72-13.298c-17.85-0.13-35.754-0.538-53.61-1.212v60.944h-29.538v-62.306c-15.878-0.868-31.672-1.952-47.306-3.246v71.058zM512 456.604c50.068 0 98.96-2.040 145.438-5.968-10.682-19.164-16.794-41.208-16.794-64.662 0-49.086 26.696-92.032 66.314-115.156-31.916-11.248-60.19-30.286-82.506-54.842-36.424-2.326-74.092-3.528-112.452-3.528s-76.026 1.204-112.454 3.528c-22.316 24.554-50.59 43.592-82.504 54.842 39.616 23.124 66.314 66.070 66.314 115.156 0 23.454-6.112 45.498-16.794 64.662 46.478 3.928 95.37 5.968 145.438 5.968zM250.082 489.708c57.198 0 103.736-46.534 103.736-103.736s-46.534-103.736-103.736-103.736c-57.2 0-103.736 46.534-103.736 103.736 0.002 57.202 46.538 103.736 103.736 103.736zM117.834 402.214c-0.65-5.328-1.024-10.74-1.024-16.24 0-49.088 26.696-92.032 66.314-115.156-11.35-4-22.242-8.984-32.568-14.854-88.868 26.54-121.020 57.65-121.020 78.562 0.002 18.112 24.124 43.87 88.298 67.688zM29.538 259.204v21.662c20.956-17.742 52.112-33.182 90.462-46.226-11.084-9.354-21.148-19.876-30.006-31.376-43.45 20.284-60.456 40.802-60.456 55.94zM422.524-33.482h-53.438v107.796h-29.538v-107.796h-178.93v107.796h-29.538v-107.796h-53.44v113.74c0 95.084 77.358 172.442 172.442 172.442s172.442-77.358 172.442-172.442v-113.74zM571.936 80.258v-113.74h-119.874v113.74c0 9.632-0.694 19.102-2.002 28.376 20.408-0.696 41.084-1.048 61.94-1.048s41.534 0.352 61.94 1.048c-1.312-9.274-2.004-18.746-2.004-28.376zM580.49 138.436c-22.512-0.862-45.38-1.31-68.49-1.31s-45.978 0.448-68.492 1.31c-4.996 16.578-12.058 32.266-20.904 46.756 29.702-1.512 59.658-2.282 89.394-2.282s59.692 0.772 89.394 2.282c-8.844-14.49-15.906-30.18-20.902-46.756zM892.918-33.482v107.796h-29.538v-107.796h-178.926v107.796h-29.538v-107.796h-53.44v113.74c0 95.084 77.358 172.442 172.442 172.442s172.442-77.358 172.442-172.442v-113.74h-53.442zM994.464 259.204v0c-0.002-15.14-17.008-35.656-60.458-55.94-8.858 11.5-18.922 22.022-30.006 31.376 38.35 13.044 69.508 28.482 90.462 46.226v-21.662zM879.044 632.026h29.538v-32.674h-29.538v32.674zM835.958 795.374h29.538v-32.672h-29.538v32.672zM933.632 896.946h29.538v-32.672h-29.538v32.672zM709.278 734.19h29.538v-32.674h-29.538v32.674zM730.388 943.596h29.538v-32.674h-29.538v32.674zM114.924 632.026h29.538v-32.674h-29.538v32.674zM158.030 795.374h29.538v-32.672h-29.538v32.672zM60.354 896.946h29.538v-32.672h-29.538v32.672zM284.712 734.19h29.538v-32.674h-29.538v32.674zM263.582 943.596h29.538v-32.674h-29.538v32.674z" />
<glyph unicode="&#xe931;" glyph-name="businessman" d="M794.618 393.263c-25.38 33.204-56.64 61.63-91.732 83.918l-48.448 73.496c17.758 13.776 33.548 30.18 46.71 48.814 21.306 30.166 34.626 66.486 44.16 101.92 7.552 28.066 12.428 58.018 8.028 87.034-1.77 11.682-5.152 23.154-10.622 33.652-12.782 24.542-31.802 34.222-41.576 37.74-30.338 40.918-60.918 66.24-98.644 81.792-97.278 40.102-201.51 13.304-265.537-68.27-45.448-57.902-117.176-90.404-117.884-90.72l-31.058-13.828 31.314-13.242c22.682-9.592 44.736-17.38 66.096-23.688 0-0.218-0.006-0.438-0.006-0.66 0-73.304 34.668-138.66 88.462-180.548l-48.318-73.3c-100.030-63.504-164.206-175.278-164.206-298.181v-243.196h705.607v243.198c0 78.128-25.016 152.152-72.346 214.068zM679.441 459.121l-109.844-124.132-37.416 65.454 105.91 121.412 41.35-62.734zM541.655 324.407c-19.114-0.094-39.67-0.162-55.074-0.152l27.58 48.246 27.494-48.094zM433.455 517.201c25.11-9.502 52.308-14.718 80.706-14.718 28.072 0 55.376 5.178 80.78 14.798l-80.778-92.602-80.708 92.522zM494.375 294.737c13.402 0 32.028 0.058 57.872 0.208v-198.578l-38.088-36.918-38.088 36.918v198.418c4.664-0.028 10.622-0.048 18.304-0.048zM260.427 771.126c27.396 16.018 68.564 44.284 99.746 84.012 55.646 70.896 146.344 94.134 231.072 59.206 33.588-13.848 61.016-37.24 88.934-75.84l3.196-4.612 5.616-1.158c0.708-0.168 17.49-4.308 27.922-25.002 9.566-18.978 14.99-54.108-5.704-117.474-9.56 34.344-24.732 78.008-44.162 98.344l-8.526 8.884-10.28-6.766c-0.428-0.282-43.618-28.33-116.362-43.2-61.718-12.616-157.086-17.848-271.453 23.606zM315.083 723.946c92.812-22.166 170.456-16.2 224.222-5.028 55.792 11.594 94.956 30.16 113.372 40.216 18.462-28.69 33.944-88.674 39.892-116.688-33.568-67.336-102.802-110.448-178.406-110.448-107.418 0-195.236 85.452-199.080 191.948zM390.233 521.855l105.908-121.412-37.416-65.452-109.84 124.132 41.348 62.732zM717.131-34.49v202.948h-29.512v-202.948h-346.917v202.948h-29.512v-202.948h-120.32v213.684c0 105.834 51.928 202.664 134.248 262.245l121.44-137.236v-220.332l67.6-65.524 67.6 65.524v220.33l121.386 137.178c82.29-59.686 134.304-156.708 134.304-262.183v-213.684h-120.318zM752.559 360.777l-23.46-17.908c23.102-30.266 39.26-64.274 48.020-101.076l28.71 6.834c-9.722 40.848-27.646 78.58-53.27 112.15zM86.494 605.863h29.512v-33.934h-29.512v33.934zM8.166 376.391h29.512v-33.936h-29.512v33.936zM86.494 209.289h29.512v-33.934h-29.512v33.934zM21.26 15.802h29.512v-33.934h-29.512v33.934zM152.266 753.232h29.512v-33.934h-29.512v33.934zM21.26 868.23h29.512v-33.934h-29.512v33.934zM192.266 949.048h29.512v-33.934h-29.512v33.934zM911.93 605.863h29.512v-33.934h-29.512v33.934zM986.322 376.391h29.512v-33.936h-29.512v33.936zM911.93 209.289h29.512v-33.934h-29.512v33.934zM977.174 15.802h29.512v-33.934h-29.512v33.934zM846.176 753.232h29.512v-33.934h-29.512v33.934zM977.174 868.23h29.512v-33.934h-29.512v33.934zM806.156 949.048h29.512v-33.934h-29.512v33.934zM607.219 270.775h93.122v-29.512h-93.122v29.512zM325.941 270.775h93.122v-29.512h-93.122v29.512z" />
<glyph unicode="&#xe932;" glyph-name="trophy" d="M1023.964 764.598c-1.020 86.91-45.496 134.776-125.238 134.776-30.864 0-60.604-7.184-80.046-13.178 1.936 35.524 1.966 57.452 1.966 58.542l0.002 15.208h-617.282v-15.206c0-0.52 0.052-22.794 2.010-58.562-19.44 5.998-49.208 13.196-80.102 13.196-79.74 0-124.218-47.864-125.238-134.776-1.004-85.5 18.496-161.608 57.954-226.214 38.74-63.43 88.256-101.652 122.974-122.542 55.606-33.464 111.18-40.488 148.012-40.488 9.080 0 17.828 0.428 26.010 1.272 0.542 0.056 1.044 0.12 1.574 0.178 17.808-19.178 37.006-34.54 57.52-45.956 15.122-8.414 25.64-23.088 29.244-39.954-20.39-6.346-35.236-25.396-35.236-47.846 0-22.954 15.526-42.34 36.62-48.24v-63.82h-82.284v-66.602h-81.2v-128.334h461.562v128.334h-81.2v66.602h-82.284v63.82c21.096 5.902 36.622 25.286 36.622 48.24 0 22.452-14.846 41.5-35.236 47.846 3.604 16.866 14.12 31.538 29.244 39.954 20.464 11.386 39.794 26.832 57.558 45.948 6.294-0.698 15.732-1.44 27.532-1.44 0.004 0 0.002 0 0.008 0 36.828 0 92.4 7.028 148.002 40.488 34.716 20.892 84.234 59.112 122.974 122.542 39.464 64.604 58.962 140.714 57.958 226.212zM789.984 929.534c-0.136-5.562-0.352-12.554-0.684-20.738h-554.526c-0.344 8.182-0.574 15.184-0.722 20.738h555.932zM810.668 789.908c20.604 6.858 47.308 13.774 71.23 13.774 20.058 0 34.5-4.9 42.926-14.564 9.684-11.108 12.806-29.768 9.274-55.468-14.706-107.052-61.124-190.616-130.708-235.294-24.238-15.564-50.342-21.994-72.218-24.278 46.274 97.262 68.67 219.294 79.496 315.83zM228.99 683.982c14.958-80.23 35.61-149.126 61.386-204.772 0.798-1.728 1.61-3.43 2.418-5.132-21.868 2.29-47.956 8.718-72.184 24.274-69.582 44.68-116.002 128.242-130.708 235.294-3.53 25.702-0.41 44.364 9.276 55.468 8.426 9.664 22.87 14.562 42.926 14.562 23.942 0 50.67-6.926 71.282-13.788 3.682-32.924 8.716-68.962 15.604-105.906zM328.976 405.766c-32.976 0-82.706 6.27-132.328 36.132-50.75 30.54-168.54 123.088-166.2 322.342 0.828 70.466 31.846 104.72 94.826 104.72 33.682 0 66.948-10.154 82.154-15.51 0.758-10.202 1.608-20.434 2.548-30.624-20.67 6.072-45.024 11.268-67.872 11.268-29.236 0-51.39-8.406-65.85-24.986-15.718-18.026-21.264-44.806-16.484-79.596 8.188-59.602 25.3-112.282 50.862-156.574 24.402-42.284 55.876-75.988 93.544-100.172 36.792-23.626 76.586-29.584 104.972-30.154 0.096-0.168 0.194-0.328 0.29-0.494 1.556-2.726 3.128-5.406 4.716-8.052 0.494-0.826 0.992-1.646 1.49-2.464 1.514-2.488 3.040-4.952 4.582-7.366 0.58-0.908 1.168-1.794 1.752-2.694 1.050-1.614 2.106-3.214 3.17-4.796 1.028-1.53 2.060-3.044 3.098-4.542 1.018-1.466 2.038-2.924 3.066-4.362 0.482-0.676 0.956-1.378 1.438-2.046-1.224-0.020-2.482-0.030-3.774-0.030zM712.376 33.97v-67.506h-400.736v67.506h400.736zM579.306 100.572h51.868v-36.188h-238.334v36.188h186.466zM475.122 130.986v61.964h73.77v-61.964h-73.77zM585.514 243.048c0-10.854-8.832-19.684-19.684-19.684h-107.644c-10.854 0-19.684 8.83-19.684 19.684s8.83 19.684 19.684 19.684h107.644c10.854 0 19.684-8.83 19.684-19.684zM661.582 416.896c-0.168-0.218-0.336-0.436-0.504-0.654-1.496-1.936-3.004-3.824-4.52-5.686-0.372-0.454-0.738-0.916-1.112-1.368-1.666-2.024-3.346-4.004-5.034-5.936-0.082-0.092-0.158-0.188-0.24-0.28-16.958-19.346-35.47-34.668-55.024-45.548-24.102-13.408-40.49-37.222-44.998-64.278h-76.284c-4.51 27.058-20.898 50.87-45 64.278-18.872 10.498-35.916 24.532-51.314 41.302l-3.72 4.244c-15.12 17.244-29.372 38.136-42.358 62.090l-3.978 7.342c-65.394 126.354-85.174 308.976-91.138 405.982h551.41c-0.254-4.22-0.532-8.578-0.84-13.104-0.014-0.21-0.030-0.426-0.044-0.636-0.336-4.904-0.696-9.822-1.078-14.744-0.010-0.144-0.022-0.288-0.032-0.434-1.216-15.6-2.656-31.258-4.298-46.73l-0.994-9.356c-11.050-99.056-34.388-225.25-83.602-320.306l-4.346-8.012c-9.67-17.832-20.042-33.964-30.952-48.166zM827.354 441.898c-49.626-29.864-99.346-36.132-132.32-36.132-0.002 0-0.006 0-0.008 0-1.294 0-2.552 0.010-3.778 0.030 0.020 0.028 0.040 0.058 0.060 0.086 1.974 2.724 3.918 5.488 5.832 8.29 0.234 0.342 0.464 0.692 0.698 1.034 1.618 2.384 3.212 4.8 4.788 7.24 0.406 0.626 0.812 1.254 1.214 1.884 1.744 2.738 3.47 5.494 5.162 8.298 0.266 0.438 0.524 0.888 0.788 1.33 1.386 2.316 2.756 4.654 4.108 7.014 0.316 0.552 0.642 1.080 0.96 1.636 28.386 0.57 68.18 6.528 104.972 30.154 37.668 24.188 69.142 57.892 93.544 100.172 25.56 44.292 42.672 96.972 50.862 156.574 4.776 34.792-0.768 61.572-16.484 79.596-14.458 16.582-36.614 24.988-65.85 24.988-22.846 0-47.204-5.192-67.872-11.266 0.958 10.39 1.78 20.356 2.484 29.828 0.020 0.264 0.042 0.53 0.062 0.792 15.21 5.358 48.474 15.51 82.154 15.51 62.98 0 93.998-34.254 94.828-104.716 2.332-199.254-115.454-291.8-166.204-322.342zM384.712 467.526l-25.4-16.734c8.672-13.166 17.992-25.128 27.702-35.552l22.256 20.732c-8.554 9.182-16.816 19.8-24.558 31.554zM319.432 636.156l-29.652-6.764c14.584-63.93 34.054-117.598 57.866-159.512l26.444 15.024c-22.344 39.33-40.734 90.218-54.658 151.252zM887.332 292.982l-0.022 30.414-25.674-0.016-0.018 25.674-30.414-0.020 0.018-25.676-25.674-0.018 0.020-30.414 25.674 0.018 0.018-25.672 30.414 0.020-0.018 25.674zM225.57 135.050l-0.032 30.414-21.544-0.022-0.022 21.546-30.414-0.032 0.022-21.544-21.548-0.022 0.034-30.414 21.544 0.022 0.022-21.548 30.414 0.032-0.022 21.546zM97.69 383.678h28.69v-30.414h-28.69v30.414zM282.078 293.694h28.69v-30.414h-28.69v30.414zM744.508 202.19h28.69v-30.414h-28.69v30.414z" />
<glyph unicode="&#xe933;" glyph-name="planet-earth" d="M512 960c-282.316 0-512-229.684-512-512s229.684-512 512-512c5.182 0 10.34 0.1 15.484 0.256 2.242-0.152 4.496-0.256 6.776-0.256 2.602 0 5.124 0.328 7.556 0.89 268.49 15.496 482.184 238.802 482.184 511.11 0 282.316-229.684 512-512 512zM233.74 281.044c55.236 0 100.174-44.938 100.174-100.174 0-46.864-32.082-86.944-77.090-97.492-114.828 80.604-190.042 213.988-190.042 364.622 0 59.014 11.572 115.372 32.514 166.956h167.834c36.824 0 66.782-29.958 66.782-66.782s-29.958-66.782-66.782-66.782h-33.39c-55.236 0-100.174-44.938-100.174-100.174s44.938-100.174 100.174-100.174zM529.522 3.158c-16.17 2.312-28.652 16.218-28.652 33.016 0 18.412 14.98 33.392 33.392 33.392h133.566c55.236 0 100.174 44.938 100.174 100.174s-44.938 100.174-100.174 100.174c-18.412 0-33.392 14.98-33.392 33.392s14.98 33.392 33.392 33.392h133.566c55.236 0 100.174 44.938 100.174 100.174s-44.938 100.174-100.174 100.174h-166.956c-73.648 0-133.566 59.918-133.566 133.566s59.918 133.566 133.566 133.566h140.75c1.158 0 2.298 0.060 3.424 0.174 108.368-81.284 178.608-210.766 178.608-356.348-0.002-239.626-190.298-435.606-427.698-444.846z" />
<glyph unicode="&#xe934;" glyph-name="on-time" d="M607.602 704.804c-141.602 0-256.806-115.202-256.806-256.804s115.204-256.804 256.806-256.804 256.804 115.202 256.804 256.804-115.202 256.804-256.804 256.804zM728.698 418h-151.096v210.582h60v-150.582h91.096zM608.748 864.396c-91.358 0.246-175.874-28.95-244.638-78.604h-227.062c-35.798 0-64.816-29.020-64.816-64.816 0-35.798 29.020-64.816 64.816-64.816h109.85c-20.93-36.192-36.552-75.83-45.846-117.848h-136.236c-35.796-0.002-64.816-29.020-64.816-64.818s29.020-64.816 64.816-64.816h128.248c3.872-41.338 13.788-80.914 28.856-117.848h-46.296c-35.798 0-64.816-29.020-64.816-64.816 0-35.798 29.020-64.816 64.816-64.816h130.108c75.864-79.824 183.052-129.594 301.87-129.594 229.97-0.002 416.398 186.424 416.398 416.394 0 230.066-185.188 415.778-415.252 416.398zM607.602 131.196c-174.686 0-316.804 142.118-316.804 316.804s142.118 316.804 316.804 316.804 316.804-142.118 316.804-316.804-142.118-316.804-316.804-316.804z" />
<glyph unicode="&#xe935;" glyph-name="shopping-cart-2" d="M1008.798 589.87c-13.522 16.964-33.808 26.696-55.66 26.696h-197.208l-106.938 244.866c-6.63 15.182-24.314 22.12-39.498 15.486-15.184-6.63-22.118-24.316-15.486-39.5l96.45-220.854h-356.916l96.45 220.854c6.63 15.184-0.302 32.868-15.486 39.5-15.182 6.634-32.868-0.3-39.498-15.486l-106.938-244.868h-197.208c-21.852 0-42.138-9.73-55.66-26.696-13.274-16.656-18.172-38.068-13.438-58.752l105.314-460c7.354-32.12 35.768-54.552 69.098-54.552h671.648c33.33 0 61.744 22.432 69.098 54.552l105.314 460.002c4.734 20.684-0.164 42.096-13.438 58.752zM847.824 76.566h-671.648c-5.094 0-9.556 3.34-10.61 7.944l-105.314 459.996c-0.826 3.61 0.56 6.326 1.872 7.968 1.216 1.528 3.97 4.090 8.738 4.090h171.006l-7.858-17.994c-6.63-15.184 0.302-32.868 15.486-39.5 3.908-1.708 7.98-2.516 11.99-2.516 11.564 0 22.584 6.726 27.508 18l18.346 42.006h409.324l18.346-42.006c4.924-11.276 15.944-18 27.508-18 4.008 0 8.082 0.808 11.99 2.516 15.184 6.63 22.118 24.316 15.486 39.5l-7.858 17.994h171.006c4.768 0 7.522-2.562 8.738-4.090 1.31-1.644 2.698-4.36 1.872-7.966l-105.314-460c-1.056-4.602-5.52-7.942-10.614-7.942zM332 426.566c-16.568 0-30-13.432-30-30v-220c0-16.568 13.432-30 30-30s30 13.432 30 30v220c0 16.568-13.43 30-30 30zM512 426.566c-16.568 0-30-13.432-30-30v-220c0-16.568 13.432-30 30-30s30 13.432 30 30v220c0 16.568-13.432 30-30 30zM692 426.566c-16.568 0-30-13.432-30-30v-220c0-16.568 13.432-30 30-30s30 13.432 30 30v220c-0.002 16.568-13.432 30-30 30z" />
<glyph unicode="&#xe936;" glyph-name="phone-call-1" d="M515.523 545.906h-120.102v-180.102h180.125v60h-120.125v60.102h120.102v180.094h-180.125v-60h120.125zM815.719 365.781v300.242h-60v-120.117h-60.102v120.117h-60v-180.117h120.102v-120.125zM838.633 732.195l-42.422 42.43 56.609 56.617 42.43-42.43zM680.219 932.492l55.43-22.961-30.641-73.977-55.43 22.961zM481.984 960h60v-80.062h-60zM343.766 932.5l30.641-73.977-55.437-22.961-30.641 73.969zM171.141 831.25l56.617-56.617-42.43-42.422-56.617 56.609zM852.82 64.711l-56.617 56.609 42.43 42.43 56.617-56.617zM973.539 224.352l-73.977 30.641 22.961 55.437 73.977-30.641zM943.937 477.984h80.062v-60h-80.062zM973.562 671.617l22.961-55.437-73.969-30.641-22.969 55.437zM456.695 97.539c-145.156 35.523-259.648 150.016-295.172 295.172h73.773v213.289h-235.297v-117.648c0-305.047 247.289-552.336 552.336-552.336h117.648v235.297h-213.289z" />
<glyph unicode="&#xe937;" glyph-name="schedule" d="M990.968 81.605v111.371c0 21.355-13.613 40.25-33.871 47l-62.008 20.685c-4.605 1.532-8.29 5-10.089 9.508l-52.056 130.202c-7.581 18.887-25.637 31.113-46.016 31.113h-126.282v396.387c0 36.435-29.629 66.065-66.065 66.065h-16.516v16.516c0 27.315-22.234 49.548-49.548 49.548s-49.548-22.234-49.548-49.548v-16.516h-33.032v16.516c0 27.315-22.234 49.548-49.548 49.548s-49.548-22.234-49.548-49.548v-16.516h-33.032v16.516c0 27.315-22.234 49.548-49.548 49.548s-49.548-22.234-49.548-49.548v-16.516h-33.032v16.516c0 27.315-22.234 49.548-49.548 49.548s-49.548-22.234-49.548-49.548v-16.516h-16.516c-36.435 0-66.065-29.629-66.065-66.065v-528.516h353.129l-13.855-27.694c-2.298-4.597-6.508-7.831-11.524-8.823l-122.766-24.565c-23.056-4.605-39.823-25.032-39.823-48.589v-108.097c-19.177-6.823-33.032-24.992-33.032-46.492 0-27.315 22.234-49.548 49.548-49.548h112.508c17.161-29.565 49.105-49.548 85.685-49.548s68.524 19.984 85.685 49.548h241.532c17.161-29.565 49.105-49.548 85.685-49.548s68.524 19.984 85.685 49.548h95.992c27.315 0 49.548 22.234 49.548 49.548 0 21.5-13.855 39.669-33.032 46.508zM512 910.452c0 9.113 7.403 16.516 16.516 16.516s16.516-7.403 16.516-16.516v-66.065c0-9.113-7.403-16.516-16.516-16.516s-16.516 7.403-16.516 16.516zM379.871 910.452c0 9.113 7.403 16.516 16.516 16.516s16.516-7.403 16.516-16.516v-66.065c0-9.113-7.403-16.516-16.516-16.516s-16.516 7.403-16.516 16.516zM247.742 910.452c0 9.113 7.403 16.516 16.516 16.516s16.516-7.403 16.516-16.516v-66.065c0-9.113-7.403-16.516-16.516-16.516s-16.516 7.403-16.516 16.516zM115.613 910.452c0 9.113 7.403 16.516 16.516 16.516s16.516-7.403 16.516-16.516v-66.065c0-9.113-7.403-16.516-16.516-16.516s-16.516 7.403-16.516 16.516zM33.032 332.387v396.387h478.968v33.032h-478.968v66.065c0 18.218 14.815 33.032 33.032 33.032h16.516v-16.516c0-27.315 22.234-49.548 49.548-49.548s49.548 22.234 49.548 49.548v16.516h33.032v-16.516c0-27.315 22.234-49.548 49.548-49.548s49.548 22.234 49.548 49.548v16.516h33.032v-16.516c0-27.315 22.234-49.548 49.548-49.548s49.548 22.234 49.548 49.548v16.516h33.032v-16.516c0-27.315 22.234-49.548 49.548-49.548s49.548 22.234 49.548 49.548v16.516h16.516c18.218 0 33.032-14.815 33.032-33.032v-66.065h-82.581v-33.032h82.581v-297.29h-33.032v264.258h-528.516v-330.323h320.113l-16.516-33.032zM297.29 563.613h66.065v-66.065h-66.065zM264.258 497.548h-66.065v66.065h66.065zM396.387 563.613h66.065v-66.065h-66.065zM495.484 563.613h66.065v-66.065h-66.065zM561.548 596.645h-66.065v66.065h66.065zM462.452 596.645h-66.065v66.065h66.065zM363.355 596.645h-66.065v66.065h66.065zM264.258 596.645h-66.065v66.065h66.065zM165.161 596.645h-66.065v66.065h66.065zM99.097 563.613h66.065v-66.065h-66.065zM99.097 464.516h66.065v-66.065h-66.065zM198.194 464.516h66.065v-66.065h-66.065zM297.29 464.516h66.065v-66.065h-66.065zM405.524 404.097l-2.831-5.645h-6.306v66.065h66.065v-33.032h-12.621c-18.879 0-35.871-10.508-44.306-27.387zM495.484 464.516h66.065v-33.032h-66.065zM181.677 18.581c-9.113 0-16.516 7.403-16.516 16.516s7.403 16.516 16.516 16.516h100.581c-0.903-5.387-1.484-10.887-1.484-16.516s0.581-11.129 1.484-16.516zM379.871-30.968c-36.435 0-66.065 29.629-66.065 66.065s29.629 66.065 66.065 66.065 66.065-29.629 66.065-66.065-29.629-66.065-66.065-66.065zM477.484 18.581c0.903 5.387 1.484 10.887 1.484 16.516s-0.581 11.129-1.484 16.516h217.677c-0.903-5.387-1.484-10.887-1.484-16.516s0.581-11.129 1.484-16.516zM792.774-30.968c-36.435 0-66.065 29.629-66.065 66.065s29.629 66.065 66.065 66.065 66.065-29.629 66.065-66.065-29.629-66.065-66.065-66.065zM792.774 134.194c-36.581 0-68.524-19.984-85.685-49.548h-79.476v148.645h188.089l-44.048 132.129h-302.895l-66.065-132.129h191.887v-148.645h-129.024c-17.161 29.565-49.105 49.548-85.685 49.548s-68.524-19.984-85.685-49.548h-95.992v105.040c0 7.863 5.581 14.669 13.282 16.185l122.774 24.565c15.081 3.016 27.702 12.645 34.605 26.419l66.226 132.46c2.798 5.637 8.444 9.137 14.75 9.137h337.081c6.79 0 12.815-4.081 15.347-10.371l52.056-130.202c5.435-13.556 16.5-23.976 30.339-28.573l61.984-20.661c6.774-2.258 11.298-8.573 11.298-15.669v-108.331h-79.476c-17.161 29.565-49.105 49.548-85.685 49.548zM456.145 266.323l33.032 66.065h258.653l22.016-66.065zM974.452 18.581h-84.065c0.903 5.387 1.484 10.887 1.484 16.516s-0.581 11.129-1.484 16.516h84.065c9.113 0 16.516-7.403 16.516-16.516s-7.403-16.516-16.516-16.516zM495.484 200.258h66.065v-33.032h-66.065zM726.71 960h297.29v-33.032h-297.29zM891.871 893.935h132.129v-33.032h-132.129zM726.71 893.935h132.129v-33.032h-132.129zM726.71 827.871h297.29v-33.032h-297.29zM858.839 761.806h33.032v-33.032h-33.032zM792.774 761.806h33.032v-33.032h-33.032zM924.903 761.806h33.032v-33.032h-33.032zM875.355 448c63.734 0 115.613 51.879 115.613 115.613 0 25.927-8.685 49.798-23.153 69.105l51.347 51.347-23.355 23.355-51.347-51.347c-19.306 14.468-43.177 23.153-69.105 23.153-63.734 0-115.613-51.879-115.613-115.613s51.879-115.613 115.613-115.613zM875.355 646.194c16.798 0 32.403-5.105 45.468-13.758l-61.984-61.984-21.355 21.355-23.355-23.355 44.71-44.71 85.339 85.339c8.653-13.065 13.758-28.669 13.758-45.468 0-45.532-37.048-82.581-82.581-82.581s-82.581 37.048-82.581 82.581 37.048 82.581 82.581 82.581z" />
<glyph unicode="&#xe938;" glyph-name="battery" d="M1024 604.903v132.125h-99.095v99.102h-165.161v-99.095h-495.487v99.095h-165.161v-99.095h-99.095v-132.128h66.066v-528.516h-66.066v-132.128h1024v132.128h-66.066v528.513h66.066zM990.967 43.354v-66.066h-957.934v66.066h957.934zM924.901 76.386h-825.806v528.516h825.806v-528.516zM957.931 637.932l-924.898 0.003v66.062h99.095v99.099h99.095v-99.099h561.549v99.099h99.095v-99.099h99.095v-66.066h-33.033zM313.806 803.097h396.388v-33.033h-396.388v33.033zM403.703 109.881l82.1 82.118h406.065v33.033h-373.032l165.161 165.161h-152.113l57.808 66.066h302.18v33.033h-273.274l28.902 33.033h-178.736l-16.516-33.033h-320.118v-33.033h303.598l-82.582-165.161h118.504l-25.715-68.574v2.511h-313.806v-33.033h302.36l-30.785-82.121zM406.596 324.13l82.582 165.161h85.52l-115.612-132.128h145.176l-116.090-116.077 31.15 83.044h-112.726zM132.128 918.705h99.095v-33.033h-99.095v33.033zM825.806 852.643h33.033v33.029h33.033v33.033h-33.033v33.036h-33.033v-33.036h-33.033v-33.033h33.033zM132.128 571.87h33.033v-33.033h-33.033v33.033zM198.194 571.87h33.033v-33.033h-33.033v33.033zM132.128 142.452h33.033v-33.033h-33.033v33.033zM858.839 571.87h33.033v-33.033h-33.033v33.033zM792.773 571.87h33.033v-33.033h-33.033v33.033z" />
<glyph unicode="&#xe939;" glyph-name="air-conditioner" d="M941.419 955.161h-858.839c-45.535 0-82.581-37.046-82.581-82.581v-297.29c0-45.535 37.046-82.581 82.581-82.581h858.839c45.535 0 82.581 37.046 82.581 82.581v297.29c0 45.535-37.046 82.581-82.581 82.581zM990.968 575.29c0-27.318-22.231-49.548-49.548-49.548h-858.839c-27.318 0-49.548 22.231-49.548 49.548v297.29c0 27.318 22.231 49.548 49.548 49.548h858.839c27.318 0 49.548-22.231 49.548-49.548v-297.29zM66.065 889.096v-330.323h891.871v330.323h-891.871zM462.452 674.387h-297.29v-33.032h297.29v-49.548h-363.355v49.548h33.032v33.032h-33.032v33.032h363.355v-33.032zM462.452 740.451h-363.355v33.032h363.355v-33.032zM462.452 806.516h-363.355v49.548h363.355v-49.548zM528.516 591.806h-33.032v264.258h33.032v-264.258zM924.903 591.806h-363.355v49.548h363.355v-49.548zM924.903 674.387h-363.355v33.032h363.355v-33.032zM924.903 806.516h-33.032v-33.032h33.032v-33.032h-363.355v33.032h297.29v33.032h-297.29v49.548h363.355v-49.548zM726.71 96.322v363.355h-33.032v-396.387h42.711l-75.743-75.743-75.743 75.743h42.711v396.387h-33.032v-363.355h-165.161v363.355h-33.032v-396.387h42.711l-75.743-75.743-75.743 75.743h42.711v396.387h-33.032v-363.355h-89.418l155.483-155.483 148.645 148.645 148.645-148.645 155.483 155.483zM1024 311.032h-42.711l21.355 21.355-23.354 23.354-44.709-44.709h-26.195v26.195l44.709 44.709-23.354 23.354-21.355-21.355v42.711h-33.032v-42.711l-21.355 21.355-23.354-23.354 44.709-44.709v-26.195h-26.195l-44.709 44.709-23.354-23.354 21.355-21.355h-42.711v-33.032h42.711l-21.355-21.355 23.354-23.354 44.709 44.709h26.195v-26.195l-44.709-44.709 23.354-23.354 21.355 21.355v-42.711h33.032v42.711l21.355-21.355 23.354 23.354-44.709 44.709v26.195h26.195l44.709-44.709 23.354 23.354-21.355 21.355h42.711zM264.258 195.419h-42.711l21.355 21.355-23.354 23.354-44.709-44.709h-26.195v26.195l44.709 44.709-23.354 23.354-21.355-21.355v42.711h-33.032v-42.711l-21.355 21.355-23.354-23.354 44.709-44.709v-26.195h-26.195l-44.709 44.709-23.354-23.354 21.355-21.355h-42.711v-33.032h42.711l-21.355-21.355 23.354-23.354 44.709 44.709h26.195v-26.195l-44.709-44.709 23.354-23.354 21.355 21.355v-42.711h33.032v42.711l21.355-21.355 23.354 23.354-44.709 44.709v26.195h26.195l44.709-44.709 23.354 23.354-21.355 21.355h42.711z" />
<glyph unicode="&#xe93a;" glyph-name="tire" d="M776.261 585.78v27.383c0 34.451-17.689 64.81-44.43 82.582 26.755 17.772 44.43 48.127 44.43 82.582v82.582c0 54.648-44.447 99.092-99.098 99.092h-578.067c-54.648 0-99.092-44.444-99.092-99.095v-82.582c0-34.451 17.689-64.81 44.43-82.582-26.745-17.768-44.43-48.127-44.43-82.579v-82.582c0-34.451 17.689-64.81 44.43-82.582-26.741-17.768-44.43-48.124-44.43-82.579v-82.582c0-54.651 44.444-99.095 99.095-99.095h275.125c36.813-142.238 165.872-247.743 319.455-247.743 182.138 0 330.321 148.183 330.321 330.321 0 153.587-105.505 282.641-247.739 319.458zM928.457 448.002c37.625-48.523 60.547-108.841 62.132-174.477l-36.602 36.616c-8.886 52.934-33.463 100.534-68.92 137.861h43.389zM898.743 481.031l-51.596 0.003c-41.655 29.863-92.224 47.881-146.959 49.216l30.768 30.768c64.692-8.144 122.895-37.077 167.786-79.988zM740.88 629.679h-166.746l59.458 49.549h43.57c30.688 0 56.337-21.143 63.718-49.549zM383.8 712.257h-146.594l-59.458 49.549h146.594l59.458-49.549zM375.941 761.807h146.598l59.455-49.549h-146.598l-59.455 49.549zM435.399 679.228h146.594l-59.458-49.549h-146.598l59.462 49.549zM677.159 712.257h-43.57l-59.458 49.549h166.746c-7.384-28.406-33.029-49.549-63.718-49.549zM581.994 926.967l-59.458-49.549h-146.598l59.458 49.549h146.598zM383.8 926.967l-59.458-49.549h-146.594l59.458 49.549h146.594zM99.095 926.967h86.512l-59.458-49.549h-90.767c7.381 28.409 33.033 49.549 63.714 49.549zM33.033 844.389h561.551v33.029h-20.446l59.458 49.549h43.57c30.685 0 56.333-21.14 63.718-49.549h-47.205v-33.033h49.549v-49.549h-710.195v49.553zM35.381 761.807h90.771l59.458-49.549h-86.515c-30.681 0-56.333 21.143-63.714 49.549zM99.095 679.228c0 0 86.512 0 86.512 0l-59.458-49.549h-90.767c7.381 28.406 33.033 49.549 63.714 49.549zM33.033 596.646h105.078l99.095 82.582h146.598l-59.462-49.549h-10.537v-33.033h429.42v-4.127c-16.204 2.459-32.669 4.127-49.549 4.127-63.52 0-122.715-18.334-173.138-49.549h-487.505v49.549zM686.478 563.235l-36.616-36.602c-52.934-8.886-100.534-33.463-137.861-68.92v43.389c48.523 37.625 108.841 60.547 174.477 62.132zM375.941 514.064h99.99c-16.090-14.151-30.74-29.811-43.819-46.806l-56.17 46.806zM383.8 464.518h-146.594l-59.458 49.549h146.598l59.455-49.549zM478.969 471.389v-51.596c-29.863-41.655-47.881-92.224-49.216-146.959l-30.768 30.768c8.137 64.692 37.077 122.878 79.984 167.786zM35.381 514.067h90.771l59.458-49.549h-86.515c-30.681 0-56.333 21.14-63.714 49.549zM99.095 431.485h86.512l-59.458-49.549h-90.767c7.381 28.406 33.033 49.549 63.714 49.549zM99.095 216.775c-30.685 0-56.333 21.143-63.718 49.549h90.771l59.458-49.549h-86.512zM374.224 348.907c-6.836-26.443-10.866-54.023-10.866-82.582 0-16.881 1.668-33.345 4.127-49.549h-130.279l-59.458 49.549h103.028v33.033h-247.743v49.549h247.743v33.033h-103.028l59.458 49.549h170.842c-9.132-15.739-16.929-32.304-23.405-49.549h-70.835v-33.033h60.416zM458.901 84.648c-37.625 48.523-60.547 108.841-62.132 174.477l36.602-36.616c8.886-52.934 33.463-100.534 68.92-137.861h-43.389zM656.401-28.369c-64.692 8.144-122.881 37.077-167.786 79.988l51.596-0.003c41.655-29.863 92.224-47.881 146.959-49.216l-30.768-30.768zM462.453 266.325c0 127.504 103.722 231.226 231.226 231.226s231.226-103.722 231.226-231.226c0-127.504-103.722-231.226-231.226-231.226s-231.226 103.722-231.226 231.226zM875.352 31.547c-48.523-37.625-108.841-60.547-174.477-62.132l36.616 36.602c52.934 8.886 100.534 33.463 137.861 68.92v-43.389zM908.389 61.26v51.596c29.863 41.655 47.881 92.224 49.216 146.959l30.768-30.768c-8.14-64.692-37.080-122.878-79.984-167.786zM858.839 266.325c0 91.069-74.091 165.161-165.161 165.161s-165.164-74.091-165.164-165.161 74.091-165.161 165.161-165.161 165.164 74.091 165.164 165.161zM561.551 266.325c0 72.853 59.275 132.128 132.128 132.128s132.128-59.275 132.128-132.128-59.275-132.128-132.128-132.128-132.128 59.275-132.128 132.128zM627.613 877.418h33.033v-33.033h-33.033v33.033zM247.746 629.679h33.033v-33.033h-33.033v33.033zM182.353 629.679h33.033v-33.033h-33.033v33.033zM693.679 84.648v-33.033c52.917 0 103.753 19.423 143.143 54.686l-22.031 24.608c-33.328-29.828-76.335-46.261-121.112-46.261zM313.808 299.358h33.033v-33.033h-33.033v33.033zM362.348 92.576l-28.968-15.871c29.218-53.312 70.408-100.815 119.114-137.414l19.836 26.408c-44.978 33.806-83.012 77.674-109.982 126.877z" />
<glyph unicode="&#xe93b;" glyph-name="painting" d="M264.258 299.355v-99.097h165.161v99.097h-165.161zM396.387 233.29h-99.097v33.032h99.097v-33.032zM528.516 596.645v66.065c0 27.318-22.231 49.548-49.548 49.548h-89.815l-19.357 174.295c-4.674 41.868-39.953 73.447-82.085 73.447h-287.711v-957.935h148.645v132.129h99.097v-148.645c0-27.318 22.231-49.548 49.548-49.548h99.097c27.318 0 49.548 22.231 49.548 49.548v148.645h33.032c27.318 0 49.548 22.231 49.548 49.548v132.129c0 21.504-13.857 39.672-33.032 46.509v69.103c0 45.535-37.046 82.581-82.581 82.581h-1.734l-3.667 33.032h71.465c27.318 0 49.548 22.231 49.548 49.548zM33.032 860.903h241.532l27.433-280.774h-268.965v280.774zM33.032 332.387h49.548v-132.129h-49.548v132.129zM115.613 35.097h-82.581v132.129h82.581v-132.129zM181.677 167.226h-33.032v33.032h-33.032v132.129h66.065v-165.161zM412.903 101.161h-33.032v-33.032h33.032v-33.032h-33.032v-33.032h33.032v-16.516c0-9.117-7.399-16.516-16.516-16.516h-99.097c-9.117 0-16.516 7.399-16.516 16.516v16.516h33.032v33.032h-33.032v33.032h33.032v33.032h-33.032v33.032h132.129v-33.032zM478.968 332.387c9.117 0 16.516-7.399 16.516-16.516v-132.129c0-9.117-7.399-16.516-16.516-16.516h-264.258v165.161h264.258zM412.903 481.032c27.318 0 49.548-22.231 49.548-49.548v-66.065h-429.419v115.613h66.065v33.032h-66.065v33.032h305.383l-33.891 346.839h-271.492v33.032h254.679c25.27 0 46.443-18.944 49.235-44.065l40.993-368.838h-245.81v-33.032h280.774zM403.836 580.129l-11.016 99.097h86.148c9.117 0 16.516-7.416 16.516-16.516v-66.065c0-9.1-7.399-16.516-16.516-16.516h-75.132zM1024 679.226v280.774h-429.419v-280.774c0-101.31 70.623-186.252 165.161-208.714v-88.576h-127.158l18.349-33.032h-56.353v-49.548h-33.032v-33.032h33.032v-33.032h120.568l18.349-33.032h9.728v-39.556c0-35.675-10.471-70.243-30.258-99.939l-17.111-25.666h30.852c54.652 0 99.097 44.445 99.097 99.097v66.065h33.032v-214.71c0-27.318 22.231-49.548 49.548-49.548h66.065c27.318 0 49.548 22.231 49.548 49.548v346.839c0 27.318-22.231 49.548-49.548 49.548h-115.613v88.576c94.538 22.462 165.161 107.404 165.161 208.714zM627.613 266.323v49.548h41.67l27.532-49.548h-69.203zM792.774 134.194c0-24.725-13.642-46.328-33.809-57.641 11.396 26.442 17.292 54.982 17.292 84.15v39.556h16.516v-66.065zM990.968 167.226h-33.032v-33.032h33.032v-33.032h-33.032v-33.032h33.032v-33.032h-33.032v-33.032h33.032v-16.516c0-9.117-7.399-16.516-16.516-16.516h-66.065c-9.117 0-16.516 7.399-16.516 16.516v214.71h99.097v-33.032zM974.452 348.903c9.117 0 16.516-7.399 16.516-16.516v-99.097h-238.014l-64.248 115.613h285.746zM792.774 381.935v83.423c5.467-0.429 10.934-0.842 16.516-0.842s11.049 0.413 16.516 0.842v-83.423h-33.032zM809.29 497.548c-100.17 0-181.677 81.507-181.677 181.677v181.677h297.29v33.032h-297.29v33.032h363.355v-33.032h-33.032v-33.032h33.032v-181.677c0-100.17-81.507-181.677-181.677-181.677zM924.903 679.226c0-63.752-51.877-115.613-115.613-115.613v-33.032c81.97 0 148.645 66.692 148.645 148.645h-33.032zM924.903 745.29h33.032v-33.032h-33.032v33.032z" />
<glyph unicode="&#xe93c;" glyph-name="car" d="M291.605 613.161h33.032v-33.032h-33.032zM588.895 613.161h33.032v-33.032h-33.032zM968.306 622.097l-82.121 20.476v20.266c20.565 15.444 33.032 39.871 33.032 65.935v33.032h49.548v33.032h-49.548c0 21.855-8.548 42.581-24.242 58.5-11.71 11.548-26.177 19.21-41.823 22.379v34.734c0 13.395-5.234 25.847-14.427 34.798-9.25 9.532-21.726 14.75-35.121 14.75-27.315 0-49.548-22.234-49.548-49.548v-181.677c0-26.081 12.476-50.508 33.032-65.935v-20.266l-82.21-20.508c-6.855-1.75-13.169-4.613-18.895-8.21-2.532 11.758-7.5 22.79-14.669 32.339h0.161c13.395 0 25.871 5.218 34.823 14.435 9.492 9.266 14.726 21.718 14.726 35.113 0 27.315-22.226 49.548-49.548 49.548h-34.218l-8.161 44.944c-5.758 31.379-33.081 54.153-64.976 54.153h-214.71c-31.887 0-59.21-22.774-64.968-54.21l-8.161-44.887h-34.226c-27.315 0-49.548-22.234-49.548-49.548 0-13.395 5.242-25.847 14.435-34.798 9.25-9.532 21.726-14.75 35.113-14.75h0.169c-10.589-14.105-16.685-31.379-16.685-49.548v-49.548c0-18.218 14.823-33.032 33.032-33.032h16.516v-33.032h-115.613v429.419c0 13.395-5.234 25.847-14.427 34.798-9.25 9.532-21.726 14.75-35.121 14.75-27.315 0-49.548-22.234-49.548-49.548v-875.355h-29.411l-24.774-99.097h207.476l-24.774 99.097h-29.419v313.806h561.548v-412.903h231.226v462.452h33.032c18.218 0 33.032 14.815 33.032 33.032v126.516c0 30.202-20.524 56.565-50.008 64.097zM886.185 728.774c0-17.621-9.476-34.056-24.75-42.847-15.476-8.895-34.113-8.911-49.589 0.024-15.274 8.766-24.758 25.202-24.758 42.823v33.032h99.097zM886.185 794.839h-99.097c0 27.315 22.234 49.548 49.548 49.548 13.137 0 25.621-5.169 34.984-14.403 9.395-9.532 14.565-22.016 14.565-35.145zM803.605 926.968c4.411 0 8.476-1.702 11.766-5.056 3.073-2.984 4.75-7.048 4.75-11.46v-34.702c-12.266-2.508-23.379-7.96-33.032-15.258v49.96c0 9.113 7.419 16.516 16.516 16.516zM712.968 590.040l107.153 26.742v31.29c5.435-1.137 10.952-1.879 16.516-1.879 5.573 0 11.089 0.742 16.516 1.879v-31.29l107.065-26.71c14.766-3.782 25.065-16.96 25.065-32.073v-60.452h-33.032v66.065h-33.032v-66.065h-33.032v66.065h-99.097v-66.065h-33.032v66.065h-33.032v-66.065h-33.032v60.452c0 15.113 10.306 28.29 24.976 32.040zM836.605 484.581c-4.839 4.444-10.403 7.798-16.484 9.96v36.040h33.032v-36.024c-6.169-2.161-11.774-5.532-16.548-9.976zM687.992 431.484v33.032h115.613c4.411 0 8.476-1.702 11.766-5.056 3.073-2.984 4.75-7.048 4.75-11.46 0-9.113-7.411-16.516-16.516-16.516zM654.96 558v-10.903h-94.452l24.774 99.097h20.129c8.145 0 16.29-2.065 23.573-5.96l1.516-0.798c15.129-9.032 24.46-25.266 24.46-42.79zM526.452 547.097h-139.363l-24.774 99.097h188.911zM390.702 514.065h132.129v-33.032h-132.129zM555.863 514.065h49.548v-33.032h-49.548zM638.444 514.065h16.516v-33.032h-16.516zM671.476 712.258c9.105 0 16.516-7.403 16.516-16.516 0-4.411-1.677-8.476-5.048-11.774-2.992-3.040-7.056-4.742-11.468-4.742h-22.21l-5.992 33.032zM316.927 784.25c2.887 15.726 16.548 27.105 32.484 27.105h214.71c15.944 0 29.605-11.379 32.476-27.056l19.21-105.798c-3.435 0.444-6.903 0.726-10.395 0.726h-297.29c-3.452 0-6.887-0.282-10.298-0.71zM230.298 684.282c-3.073 2.984-4.758 7.048-4.758 11.46 0 9.113 7.419 16.516 16.516 16.516h28.234l-6-33.032h-22.234c-4.403 0-8.468 1.702-11.758 5.056zM258.573 596.645c0 17.323 9.121 33.379 23.935 42.476l2.048 1.097c7.282 3.911 15.427 5.976 23.565 5.976h20.137l24.774-99.097h-94.46zM308.121 514.065h49.548v-33.032h-49.548zM171.355-30.968h-122.847l8.258 33.032h106.331zM93.411 35.097v875.355c0 9.113 7.419 16.516 16.516 16.516 4.411 0 8.476-1.702 11.766-5.056 3.073-2.984 4.75-7.048 4.75-11.46v-875.355zM159.476 381.935v66.065h495.484v-16.516c0-18.218 14.823-33.032 33.032-33.032h33.032v-16.516zM754.056 315.871h66.065v-346.839h-66.065zM853.153-30.968v346.839h66.065v-346.839zM919.218 348.903h-165.161v49.548h49.548c12.734 0 24.25 4.968 33.032 12.879 8.79-7.927 20.298-12.879 33.032-12.879h49.548zM869.669 431.484c-9.097 0-16.516 7.403-16.516 16.516 0 4.411 1.685 8.476 5.056 11.774 2.992 3.040 7.056 4.742 11.46 4.742h115.613v-33.032zM527.677 96.323l23.347-23.355 21.355 21.355v-9.677c0-63.734-51.855-115.613-115.613-115.613-63.75 0-115.613 51.879-115.613 115.613s51.863 115.613 115.613 115.613v33.032c-81.952 0-148.645-66.677-148.645-148.645s66.694-148.645 148.645-148.645c81.96 0 148.645 66.677 148.645 148.645v9.677l21.363-21.355 23.347 23.355-61.226 61.226zM440.25 91.484l-37.871 37.871-23.347-23.355 61.218-61.226 209.871 209.871-23.347 23.355z" />
<glyph unicode="&#xe93d;" glyph-name="support-1" d="M132.129 464.516h33.032v-33.032h-33.032zM198.194 464.516h33.032v-33.032h-33.032zM264.258 464.516h33.032v-33.032h-33.032zM975.919 203l22.315 39.056-12.29 12.29c25.161 61.476 38.056 126.532 38.056 193.653 0 282.331-229.669 512-512 512s-512-229.669-512-512c0-88.282 22.911-175.056 66.065-251.444v-194.492h194.46c76.403-43.153 163.21-66.065 251.476-66.065 67.121 0 132.177 12.895 193.637 38.073l12.282-12.29 39.065 22.315c3.75-1.718 7.516-3.306 11.315-4.726l11.855-43.371h91.29l11.855 43.355c3.782 1.419 7.565 3.008 11.315 4.726l39.056-22.315 64.548 64.54-22.315 39.065c1.718 3.75 3.306 7.516 4.726 11.315l43.371 11.855v91.29l-43.355 11.855c-1.419 3.798-3.008 7.565-4.726 11.315zM33.032 448c0 264.097 214.871 478.968 478.968 478.968s478.968-214.871 478.968-478.968c0-58.121-10.226-114.621-30.387-168.282l-26.887 26.887-39.065-22.315c-3.75 1.718-7.516 3.306-11.315 4.726l-11.855 43.371h-45.653v198.194h-99.097v165.161h-33.032v157.484l-61.056 40.71h-38.040v-198.194h-33.032v-165.161h-66.065v107.226c0 14.694 7.105 29.016 19.476 39.306 29.613 24.605 46.589 60.5 46.589 98.452 0 49.629-29.677 95.5-75.629 116.839l-23.468 10.895v-116.137l-33.032-22.016-33.032 22.016v116.137l-23.468-10.895c-45.952-21.339-75.629-67.21-75.629-116.839 0-37.952 16.976-73.847 46.589-98.452 12.371-10.29 19.476-24.613 19.476-39.306v-107.226h-297.29v-257.024c-21.589 55.298-33.032 114.476-33.032 174.444zM365.024 702.5c-22.048 18.347-34.702 44.968-34.702 73.065 0 27.548 12.403 53.581 33.032 71.613v-77.694l66.065-44.048 66.065 44.048v77.694c20.629-18.032 33.032-44.065 33.032-71.613 0-28.097-12.653-54.718-34.702-73.065-19.935-16.589-31.363-40.153-31.363-64.694v-107.226h-66.065v107.226c0 24.54-11.427 48.105-31.363 64.694zM792.774 497.548v-99.097h-693.677v99.097zM660.645 695.742h-33.032v161.823l33.032-22.016zM693.677 662.71v-33.032h-99.097v33.032zM594.581 596.645h99.097v-66.065h-99.097zM99.097 365.419h693.677v-33.032h-12.621l-11.855-43.355c-3.782-1.419-7.565-3.008-11.315-4.726l-39.065 22.315-57.274-57.29v83.056h-132.129v-132.129h132.129v29.105l15.048-26.363c-1.718-3.75-3.306-7.516-4.726-11.315l-43.355-11.839v-91.29l43.355-11.855c1.419-3.782 3.008-7.565 4.726-11.315l-17.298-30.29h-559.298zM627.613 299.355v-66.065h-66.065v66.065zM512-30.968c-59.952 0-119.129 11.427-174.444 33.032h340.081l2.645-2.645c-53.661-20.161-110.161-30.387-168.282-30.387zM990.968 113.782l-36.218-9.927-2.661-8.653c-2.363-7.637-5.532-15.25-9.444-22.629l-4.266-8.008 18.661-32.702-28.863-28.871-32.71 18.661-8.008-4.258c-7.379-3.919-14.992-7.105-22.629-9.452l-8.653-2.661-9.96-36.25h-40.839l-9.927 36.218-8.653 2.661c-7.637 2.363-15.25 5.532-22.629 9.444l-8.008 4.266-32.702-18.661-28.871 28.863 18.661 32.71-4.266 8.008c-3.911 7.379-7.097 14.992-9.444 22.629l-2.661 8.653-36.234 9.96v40.839l36.218 9.927 2.661 8.653c2.363 7.637 5.532 15.25 9.444 22.629l4.266 8.008-18.661 32.702 28.863 28.871 32.71-18.661 8.008 4.266c7.379 3.911 14.992 7.097 22.629 9.444l8.653 2.661 9.96 36.234h40.839l9.927-36.218 8.653-2.661c7.637-2.363 15.25-5.532 22.629-9.444l8.008-4.266 32.702 18.661 28.871-28.863-18.661-32.71 4.266-8.008c3.911-7.379 7.097-14.992 9.444-22.629l2.661-8.653 36.234-9.96zM825.806 233.29c-54.653 0-99.097-44.444-99.097-99.097s44.444-99.097 99.097-99.097 99.097 44.444 99.097 99.097-44.444 99.097-99.097 99.097zM825.806 68.129c-36.435 0-66.065 29.629-66.065 66.065s29.629 66.065 66.065 66.065 66.065-29.629 66.065-66.065-29.629-66.065-66.065-66.065zM132.129 134.194h198.194v198.194h-198.194zM165.161 299.355h132.129v-132.129h-132.129zM132.129 101.161h198.194v-33.032h-198.194zM495.484 332.387h-132.129v-132.129h132.129zM462.452 233.29h-66.065v66.065h66.065zM363.355 167.226h231.226v-33.032h-231.226zM363.355 101.161h231.226v-33.032h-231.226z" />
<glyph unicode="&#xe93e;" glyph-name="car-repair" d="M975.36-5.974l-78.506 135.058v745.582c0 29.014-22.186 51.2-51.2 51.2h-221.868c0 18.774-15.36 34.134-34.132 34.134h-238.934c-18.774 0-34.134-15.36-34.134-34.134h-221.866c-29.014 0-51.2-22.186-51.2-51.2v-887.466c0-29.014 22.186-51.2 51.2-51.2h849.92c13.654 0 25.6 6.826 30.72 20.48 6.826 11.946 6.826 25.6 0 37.546zM532.038 38.4h-386.118v785.066h170.666c0-18.774 15.36-34.134 34.134-34.134h238.934c18.774 0 34.134 15.36 34.134 34.134h170.666v-517.12l-20.48 34.134c-6.826 11.946-18.774 18.774-32.426 18.774s-25.6-6.826-32.426-18.774l-177.084-302.080zM845.654 891.734c10.24 0 17.066-6.826 17.066-17.066v-684.374l-34.134 57.764v575.408c0 18.774-15.36 34.134-34.134 34.134h-170.666v34.134h221.868zM350.72 925.866h238.934v-102.398h-238.934v102.398zM94.72-29.866c-10.24 0-17.066 6.826-17.066 17.066v887.466c0 10.24 6.826 17.066 17.066 17.066h221.866v-34.132h-170.666c-18.774 0-34.134-15.36-34.134-34.134v-785.066c0-18.774 15.36-34.134 34.134-34.134h366.11l-6.002-10.24c-5.12-8.534-6.826-15.36-5.12-23.894h-406.188zM948.054-26.454c0 0-1.706-1.706-3.414-1.706h-404.48c-0.96 0-1.91 0.012-2.566 0.316-0.51 0.734-0.846 1.39-0.846 1.39s-1.706 1.706 0 3.414l203.092 344.746c1.706 1.706 1.706 1.706 3.414 1.706 0.982 0 1.402-0.010 1.904-0.336l202.896-346.116c1.706-1.706 0-3.414 0-3.414zM743.254 243.2c-10.24 0-17.066-6.826-17.066-17.066v-136.534c0-10.24 6.826-17.066 17.066-17.066s17.066 6.826 17.066 17.066v136.534c0 10.24-6.826 17.066-17.066 17.066zM744.96 492.374v66.56c0 25.6-20.48 44.374-44.374 44.374h-36.352l-66.048 92.16c-10.24 15.36-27.306 23.894-46.080 23.894h-73.85c-2.338 1.1-5.050 1.706-8.070 1.706s-5.73-0.608-8.070-1.706h-73.85c-18.774 0-35.84-8.534-46.080-23.894l-66.048-92.16h-34.646c-25.6 0-44.374-20.48-44.374-44.374v-66.56c0-25.6 18.774-44.374 44.374-44.374h26.068c7.628-29.358 34.432-51.2 66.092-51.2 31.658 0 58.464 21.842 66.092 51.2h140.884c7.628-29.358 34.432-51.2 66.092-51.2 31.658 0 58.464 21.842 66.092 51.2h26.068c25.6 0 44.374 18.774 46.080 44.374zM569.174 678.4l53.4-75.094h-135.32v83.626h63.146c8.534 0.002 15.36-3.412 18.774-8.532zM367.786 678.4c5.12 5.12 11.946 8.534 18.774 8.534h66.56v-83.626h-137.064l51.73 75.092zM333.654 430.934c-18.774 0-34.134 15.36-34.134 34.134s15.36 34.134 34.134 34.134c18.774 0 34.134-15.36 34.134-34.134s-15.362-34.134-34.134-34.134zM606.72 430.934c-18.774 0-34.134 15.36-34.134 34.134s15.36 34.134 34.134 34.134 34.134-15.36 34.134-34.134-15.36-34.134-34.134-34.134zM710.826 492.374c0-5.12-5.12-10.24-10.24-10.24h-27.306c-8.534 29.014-30.72 51.2-63.146 51.2-0.622 0-1.24-0.024-1.858-0.040-0.518 0.012-1.034 0.040-1.556 0.040-31.66 0-58.464-21.842-66.092-51.2h-138.708c-8.534 29.014-34.134 51.2-66.56 51.2-0.312 0-0.618-0.016-0.928-0.020-0.26 0.002-0.516 0.020-0.778 0.020-31.66 0-58.464-21.842-66.092-51.2h-26.068c-5.12 0-10.24 5.12-10.24 10.24v66.56c0 5.12 5.12 10.24 10.24 10.24h33.284c2.264-1.076 4.81-1.706 7.676-1.706h375.466c2.866 0 5.412 0.63 7.676 1.706h34.99c5.12 0 10.24-5.12 10.24-10.24v-66.56zM470.186 311.466h-256c-10.24 0-17.066-6.826-17.066-17.066s6.826-17.066 17.066-17.066h256c10.24 0 17.066 6.826 17.066 17.066 0.002 10.24-6.826 17.066-17.066 17.066zM470.186 226.134h-256c-10.24 0-17.066-6.826-17.066-17.066s6.826-17.066 17.066-17.066h256c10.24 0 17.066 6.826 17.066 17.066s-6.826 17.066-17.066 17.066zM470.186 140.8h-256c-10.24 0-17.066-6.826-17.066-17.066s6.826-17.066 17.066-17.066h256c10.24 0 17.066 6.826 17.066 17.066s-6.826 17.066-17.066 17.066z" />
<glyph unicode="&#xe93f;" glyph-name="tick-inside-circle" d="M302.080 545.28l-71.68-71.68 230.4-230.4 512 512-71.68 71.68-440.32-440.32-158.72 158.72zM921.6 448c0-225.28-184.32-409.6-409.6-409.6s-409.6 184.32-409.6 409.6 184.32 409.6 409.6 409.6c40.96 0 76.8-5.12 112.64-15.36l81.922 81.92c-61.442 20.48-128.002 35.84-194.562 35.84-281.6 0-512-230.4-512-512s230.4-512 512-512 512 230.4 512 512h-102.4z" />
<glyph unicode="&#xe940;" glyph-name="right-chevron" d="M672 448l-415.999-416.001v-95.999l512 512-512 512v-95.999z" />
<glyph unicode="&#xe941;" glyph-name="permission" d="M840.526 116c3.412 95.558 22.916 146.014 38.876 187.282 14.936 38.616 27.834 71.966 16.018 119.998-12.904 52.46-56.922 98.174-115.42 109.776v229.37l-197.574 197.574h-582.426v-1024h1024v180zM837.158 408.944c7.3-29.68-0.164-48.982-13.714-84.020-16.824-43.498-39.34-101.79-42.936-208.926h-61.018c-3.6 106.852-26.078 165.342-42.876 208.992-13.542 35.186-21 54.568-13.772 83.954 8.198 33.324 40.768 67.056 87.158 67.056s78.96-33.732 87.158-67.056zM600 857.574l77.574-77.574h-77.574zM60-4v904h480v-180h180v-186.944c-57.828-11.46-102.354-56.658-115.42-109.778-11.73-47.682 1.136-81.12 16.038-119.836 15.95-41.444 35.44-92.112 38.856-187.442h-179.474v-120zM964-4c-12.338 0-413.898 0-424 0v60h424zM120 596h240v-60h-240zM120 476h360v-60h-360zM210 236c-49.626 0-90-40.374-90-90s40.374-90 90-90 90 40.374 90 90-40.374 90-90 90zM210 116c-16.542 0-30 13.458-30 30s13.458 30 30 30 30-13.458 30-30-13.458-30-30-30z" />
<glyph unicode="&#xe942;" glyph-name="discussion" d="M874.040 810.040c-96.706 96.702-225.28 149.96-362.040 149.96s-265.334-53.258-362.040-149.96c-96.702-96.706-149.96-225.28-149.96-362.040 0-90.21 23.672-178.464 68.572-256.082l-68.572-255.918 255.918 68.572c77.618-44.9 165.872-68.572 256.082-68.572 136.76 0 265.334 53.258 362.040 149.96 96.702 96.706 149.96 225.28 149.96 362.040s-53.258 265.334-149.96 362.040zM512-4c-83.51 0-165.094 22.96-235.93 66.402l-10.992 6.74-180.226-48.292 48.292 180.226-6.74 10.992c-43.444 70.838-66.404 152.422-66.404 235.932 0 249.234 202.766 452 452 452s452-202.766 452-452-202.766-452-452-452zM542 538h-60v-60h-60v-60h60v-60h60v60h60v60h-60zM904 478h-61.37c-14.326 159.172-141.458 286.304-300.63 300.63v61.37h-60v-61.37c-159.172-14.326-286.304-141.458-300.63-300.63h-61.37v-60h61.37c14.326-159.172 141.458-286.304 300.63-300.63v-61.37h60v61.37c159.172 14.326 286.304 141.458 300.63 300.63h61.37zM542 177.662v58.338h-60v-58.338c-126.060 13.896-226.442 114.278-240.338 240.338h58.338v60h-58.338c13.896 126.060 114.278 226.442 240.338 240.338v-58.338h60v58.338c126.060-13.896 226.442-114.278 240.338-240.338h-58.338v-60h58.338c-13.896-126.060-114.278-226.442-240.338-240.338z" />
<glyph unicode="&#xe943;" glyph-name="rocket" d="M920.978 308.869l-100.746 36.482c15.896 231.336-75.862 443.327-283.553 606.129-14.49 11.36-34.864 11.36-49.356 0-194.444-152.422-300.685-359.653-283.547-606.123l-100.756-36.486c-15.834-5.734-26.38-20.77-26.38-37.61v-295.259c0-15.6 9.068-29.776 23.232-36.316 14.18-6.552 30.856-4.23 42.708 5.866l167.208 142.45h162.212v-112c0-22.092 17.908-40 40-40s40 17.908 40 40v112h162.212l167.21-142.448c11.778-10.034 28.434-12.456 42.708-5.866 14.162 6.538 23.23 20.714 23.23 36.314v295.259c0 16.84-10.546 31.876-26.38 37.608zM156.64 62.628v180.578l57.216 20.716c7.374-41.29 18.778-84.964 33.298-124.186l-90.514-77.108zM701.939 168.002h-149.94v60c0 22.092-17.908 40-40 40s-40-17.908-40-40v-60h-149.958c-90.080 245.076-34.558 510.369 189.958 700.419 226.7-191.916 279.475-456.351 189.94-700.419zM867.358 62.628l-90.5 77.098c9.76 26.352 23.552 69.476 33.312 124.188l57.188-20.708v-180.578zM561.999 508.001c0-27.614-22.386-50-50-50s-50 22.386-50 50c0 27.614 22.386 50 50 50s50-22.386 50-50z" />
<glyph unicode="&#xe944;" glyph-name="goal" d="M229.781 810.148l282.219-284.57 282.219 284.57-149.844 149.852h-264.75zM482.016 780.078v-139.094l-137.945 139.094zM344.492 840.047l47.555 47.555 47.555-47.555zM541.984 780.078h137.945l-137.945-139.094zM584.398 840.047l47.555 47.555 47.555-47.555zM512 852.469l-47.555 47.555h95.109zM1024-63.578l-272.203 449.945-81.469-135.781-158.328 254.375-157.547-253.125-82.602 133.953-271.852-449.367zM266.109-3.602l113.344 182.102 132.547-132.547 132.547 132.547 113.344-182.102zM752.008 270.156l165.609-273.758h-89.086l-122.594 196.969zM612.008 230.781l-100.008-100.008-100.008 100.008 100.008 160.68zM106.383-3.602l165.961 274.336 46.719-75.758-123.594-198.578z" />
<glyph unicode="&#xe945;" glyph-name="route" d="M832 880c-61.744 0-112-50.24-112-112s50.256-112 112-112 112 50.24 112 112-50.256 112-112 112zM832 688c-44.112 0-80 35.888-80 80s35.888 80 80 80 80-35.888 80-80-35.888-80-80-80zM848 624h32v-32h-32zM784 624h32v-32h-32zM832 944c-97.040 0-176-78.96-176-176v-8.256c0-28.576 7.072-57.056 20.448-82.352l117.92-222.736c4.752-8.976 12.576-15.424 21.632-19.136v-315.52c0-74.992-61.008-136-136-136s-136 61.008-136 136v280h-64v-32h32v-248c0-92.64 75.36-168 168-168s168 75.36 168 168v315.52c9.056 3.712 16.864 10.16 21.632 19.136l117.92 222.736c13.376 25.296 20.448 53.776 20.448 82.352v8.256c0 97.040-78.96 176-176 176zM976 759.744c0-23.376-5.776-46.688-16.736-67.376l-117.92-222.72c-3.68-6.96-15.008-6.944-18.688 0l-117.92 222.736c-10.96 20.672-16.736 43.968-16.736 67.36v8.256c0 79.392 64.592 144 144 144s144-64.608 144-144zM376 912c74.992 0 136-61.008 136-136v-152h64v32h-32v120c0 92.64-75.36 168-168 168s-168-75.36-168-168v-248h-32c-79.408 0-144-64.608-144-144v-84.448c-9.52-5.552-16-15.76-16-27.552 0-16.080 6.16-30.624 16-41.888v-102.112c0-97.040 78.96-176 176-176h32c97.040 0 176 78.96 176 176v102.112c9.84 11.248 16 25.792 16 41.888 0 11.792-6.48 22-16 27.552v84.448c0 79.392-64.592 144-144 144h-32v248c0 74.992 61.008 136 136 136zM142.112 490.736c1.216-3.584 1.888-7.168 1.888-10.736 0-26.464-28.704-48-64-48-1.6 0-3.248 0.256-4.864 0.368 13.28 27.584 37.44 48.96 66.976 58.368zM400 272c0-17.648-14.352-32-32-32h-25.376l-20.32 20.32 3.888 11.68zM150.624 240h146.752l22.624-22.624v-41.376h-192v41.376zM320 144c0-52.944-43.056-96-96-96s-96 43.056-96 96zM292.464 272h-136.928l-26.336 78.976c8.944 6.656 41.952 17.024 94.8 17.024s85.856-10.368 94.8-17.024zM125.696 260.32l-20.32-20.32h-25.376c-17.648 0-32 14.352-32 32h73.808zM240-16h-32c-79.408 0-144 64.608-144 144v82.272c5.152-1.344 10.448-2.272 16-2.272h16v-64c0-70.576 57.424-128 128-128s128 57.424 128 128v64h16c5.552 0 10.848 0.928 16 2.272v-82.272c0-79.392-64.592-144-144-144zM372.864 432.368c-1.616-0.112-3.264-0.368-4.864-0.368-35.296 0-64 21.536-64 48 0 3.552 0.672 7.136 1.888 10.736 29.536-9.408 53.696-30.784 66.976-58.368zM274.176 495.888c-1.328-5.232-2.176-10.528-2.176-15.888 0-44.112 43.056-80 96-80 4.832 0 9.664 0.384 14.56 1.072 0.864-5.584 1.44-11.248 1.44-17.072v-80h-47.136l15.136 45.408v2.592c0 46.656-114.912 48-128 48s-128-1.344-128-48v-2.592l15.136-45.408h-47.136v80c0 5.824 0.576 11.488 1.44 17.072 4.896-0.672 9.728-1.072 14.56-1.072 52.944 0 96 35.888 96 80 0 5.376-0.848 10.656-2.16 15.888 0.72 0.016 1.424 0.112 2.16 0.112h96c0.736 0 1.44-0.096 2.176-0.112zM480 592h96v-32h-96zM480 528h96v-32h-96zM480 464h96v-32h-96z" />
<glyph unicode="&#xe946;" glyph-name="cost" d="M964.432 896l-45.888 27.536c-22.32 13.392-47.872 20.464-73.888 20.464h-140.656c-17.648 0-32-14.352-32-32 0-11.712 3.392-22.544 8.896-32h-72.896c-26.464 0-48-21.536-48-48 0-5.632 1.152-10.976 2.944-16h-50.944c-26.464 0-48-21.536-48-48v-54.736c-65.632-19.84-112-81.248-112-150.704 0-69.936 46.96-132.176 114.176-151.376l65.264-18.64c26.24-7.504 44.56-31.808 44.56-59.104 0-33.888-27.568-61.44-61.44-61.44h-5.12c-33.872 0-61.44 27.568-61.44 61.44v2.56c0 26.464-21.536 48-48 48s-48-21.536-48-48v-2.56c0-34.512 11.472-67.024 31.040-93.44h-39.936c5.504 9.456 8.896 20.288 8.896 32 0 17.648-14.352 32-32 32h-140.656c-26.016 0-51.568-7.072-73.904-20.464l-45.872-27.536h-43.568v-256h43.568l45.888-27.536c22.32-13.392 47.872-20.464 73.888-20.464h204.656c26.464 0 48 21.536 48 48 0 6.32-1.296 12.32-3.52 17.856 20.4 5.536 35.52 24.016 35.52 46.144 0 5.632-1.152 10.976-2.944 16h50.944c26.464 0 48 21.536 48 48v54.736c65.632 19.84 112 81.248 112 150.704 0 69.936-46.96 132.176-114.176 151.376l-65.264 18.64c-26.24 7.504-44.56 31.808-44.56 59.104 0 33.888 27.568 61.44 61.44 61.44h5.104c33.888 0 61.44-27.568 61.44-61.44v-2.56c0-26.464 21.536-48 48-48s48 21.536 48 48v2.56c0 10.032-1.072 19.856-2.928 29.44h175.568c26.016 0 51.568 7.072 73.904 20.464l45.904 27.536h43.568v256zM432 64c0-8.816-7.184-16-16-16h-192v-32h160c8.816 0 16-7.184 16-16s-7.184-16-16-16h-204.656c-20.224 0-40.080 5.504-57.424 15.904l-53.488 32.096h-20.432v192h20.432l53.488 32.096c17.344 10.4 37.2 15.904 57.424 15.904h140.656c0-17.648-14.352-32-32-32h-70.624l-24.576-24.576c-15.104-15.104-35.2-23.424-56.56-23.424h-24.24v-32h24.24c29.92 0 58.032 11.648 79.2 32.8l15.2 15.2h184.144c14.592-11.072 31.136-19.792 49.216-25.264v-6.736h-240v-32h240v-16c0-5.632 1.152-10.976 2.944-16h-242.944v-32h192c8.816 0 16-7.184 16-16zM640 560c0-8.816-7.184-16-16-16s-16 7.184-16 16v2.56c0 51.52-41.92 93.44-93.44 93.44h-5.12c-51.52 0-93.44-41.92-93.44-93.44 0-41.504 27.872-78.464 67.76-89.856l65.264-18.64c53.568-15.312 90.976-64.896 90.976-120.624 0-58.832-41.776-110.416-99.328-122.672l-12.672-2.688v-80.080c0-8.816-7.184-16-16-16s-16 7.184-16 16v80.080l-12.672 2.688c-57.552 12.256-99.328 63.84-99.328 122.672v2.56c0 8.816 7.184 16 16 16s16-7.184 16-16v-2.56c0-51.52 41.92-93.44 93.44-93.44h5.104c51.52 0 93.44 41.92 93.44 93.44 0 41.504-27.872 78.464-67.76 89.856l-65.264 18.64c-53.552 15.312-90.96 64.896-90.96 120.624 0 58.832 41.776 110.416 99.328 122.672l12.672 2.688v80.080c0 8.816 7.184 16 16 16s16-7.184 16-16v-80.080l12.672-2.688c57.552-12.256 99.328-63.84 99.328-122.672zM976 672h-20.432l-53.488-32.096c-17.344-10.4-37.2-15.904-57.424-15.904h-185.296c-4.88 11.376-11.072 22.112-18.384 32h159.024v32h-190.784c-14.592 11.072-31.136 19.792-49.216 25.264v6.736h240v32h-240v16c0 5.632-1.152 10.976-2.944 16h242.944v32h-192c-8.816 0-16 7.184-16 16s7.184 16 16 16h185.376l15.2-15.2c21.152-21.152 49.28-32.8 79.2-32.8h24.224v32h-24.24c-21.36 0-41.456 8.32-56.576 23.424l-24.56 24.576h-70.624c-17.648 0-32 14.352-32 32h140.656c20.224 0 40.080-5.504 57.424-15.904l53.488-32.096h20.432zM704 352h160v-32h-160zM160 576h160v-32h-160zM174.694 470.635l147.84 61.28 12.256-29.568-147.84-61.28zM174.683 649.27l12.256 29.568 147.84-61.28-12.256-29.568zM689.578 393.669l147.84 61.28 12.256-29.568-147.84-61.28zM689.653 278.282l12.256 29.568 147.84-61.28-12.256-29.568z" />
<glyph unicode="&#xe947;" glyph-name="warranty" d="M1007.506 399.248c-63.644 0-115.449 51.806-115.449 115.449v16.493h-164.927v428.811h-551.089l-174.591-174.591v-781.987h665.435c30.408-26.237 64.996-48.254 103.224-64.634l6.499-2.786 6.499 2.786c146.341 62.701 240.892 206.111 240.892 365.312v95.147zM57.758 795.073l108.62 108.62v-108.62zM100.407 762.087h98.956v98.956h428.811v-164.927h-527.767zM34.436 762.087h32.985v-98.956h593.738v230.898h-461.796v32.985h494.782v-395.825h-32.985v-16.493c0-63.644-51.806-115.449-115.449-115.449h-16.493v-95.147c0-101.211 38.333-195.932 103.756-267.693h-598.538zM991.014 304.1c0-143.635-83.913-273.217-214.405-332.15-130.492 58.916-214.405 188.515-214.405 332.15v63.072c68.693 7.618 123.397 62.323 131.016 131.016h166.763c7.618-68.693 62.323-123.397 131.016-131.016v-63.072zM847.612 292.174l43.108 100.591-30.312 12.982-41.594-97.064c-13.094 5.162-27.292 8.101-42.206 8.101-63.644 0-115.449-51.806-115.449-115.449s51.806-115.449 115.449-115.449c63.644 0 115.449 51.806 115.449 115.449 0 36.875-17.451 69.683-44.445 90.839zM776.608 118.871c-45.468 0-82.464 36.996-82.464 82.464s36.996 82.464 82.464 82.464c10.292 0 20.052-2.126 29.144-5.589l-36.497-85.137-32.985 21.985-18.297-27.445 65.971-43.986 50.026 116.738c15.438-14.995 25.101-35.876 25.101-59.029 0-45.468-36.996-82.464-82.464-82.464zM67.421 69.393h428.811v296.869h-428.811zM100.407 333.277h362.84v-230.898h-362.84zM133.392 630.146h362.84v-32.985h-362.84zM67.421 630.146h32.985v-32.985h-32.985zM67.421 564.175h428.811v-32.985h-428.811zM67.421 498.204h428.811v-32.985h-428.811zM67.421 432.233h428.811v-32.985h-428.811z" />
<glyph unicode="&#xe948;" glyph-name="engine" d="M891.872 414.967h-49.549v99.095h-77.577l-99.095 66.066h-104.1v99.099h132.128v33.033h-396.388v-33.033h132.128v-99.095h-105.207l-115.612-99.095h-92.987v-99.095h-82.579v148.638h-33.033v-412.905h33.033v132.128h82.582v-132.128h94.704l115.612-66.066h186.072v33.033h-177.287l-103.49 59.129v313.147l105.207 90.178h319.206l87.584-58.383v-57.228h33.033v49.549h33.033v-396.388h-33.033v-33.033h66.066v82.582h49.549v-33.033h132.128v363.355h-132.128v-49.549zM115.615 282.839h-82.582v66.066h82.582v-66.066zM198.194 150.711h-49.549v297.289h49.549v-297.289zM528.516 580.132h-66.066v99.095h66.066v-99.095zM891.872 167.227h-49.549v214.711h49.549v-214.711zM924.905 431.484h66.066v-297.289h-66.066v297.289zM667.484 348.905h-123.391l82.582 115.612h-157.926l-99.102-198.194h103.92l-44.51-155.845 238.427 238.427zM423.109 299.355l66.066 132.128h73.297l-82.582-115.612h107.832l-91.895-91.895 21.553 75.378h-94.271zM132.128 860.905h99.095v-33.033h-99.095v33.033zM0 860.905h99.095v-33.033h-99.095v33.033zM99.095 827.872h33.033v-99.095h-33.033v99.095zM99.095 960h33.033v-99.095h-33.033v99.095zM957.938 712.256v66.066h-33.033v-66.066h33.029v-33.029h-33.029v33.029h-66.066v-33.033h66.066v-66.062h33.033v66.062h66.062v33.033zM660.645 84.645h82.582v-33.033h-82.582v33.033zM627.615 84.645h33.029v82.582h-33.033v-82.582h-82.579v-33.033h82.579v-82.582h33.033v82.582h-33.029zM990.967 35.095h-33.033v-33.029h-33.029v-33.033h33.029v-33.033h33.033v33.033h-33.029v33.029h33.029v-33.029h33.033v33.033h-33.033z" />
</font>
</defs>
</svg>
